<?xml version="1.0" standalone="no"?>
<!DOCTYPE svg PUBLIC "-//W3C//DTD SVG 1.1//EN" "http://www.w3.org/Graphics/SVG/1.1/DTD/svg11.dtd" >
<svg xmlns="http://www.w3.org/2000/svg" xmlns:xlink="http://www.w3.org/1999/xlink" version="1.1">
<metadata>
Created by FontForge 20170731 at Mon Dec 26 13:14:43 2005
 By Aleksey,,,
(C)1992 The Font Company Inc., ALL Rights Reserved
</metadata>
<defs>
<font id="Arial-Lgt" horiz-adv-x="517" >
  <font-face 
    font-family="Arial Light"
    font-weight="300"
    font-stretch="normal"
    units-per-em="1000"
    panose-1="0 0 0 0 0 0 0 0 0 0"
    ascent="800"
    descent="-200"
    x-height="482"
    cap-height="666"
    bbox="0 -250 942 881"
    underline-thickness="20"
    underline-position="-170"
    unicode-range="U+0020-FB02"
  />
<missing-glyph horiz-adv-x="0" 
 />
    <glyph glyph-name=".notdef" horiz-adv-x="0" 
 />
    <glyph glyph-name=".null" horiz-adv-x="0" 
 />
    <glyph glyph-name="nonmarkingreturn" horiz-adv-x="333" 
 />
    <glyph glyph-name="space" unicode=" " horiz-adv-x="233" 
 />
    <glyph glyph-name="exclam" unicode="!" horiz-adv-x="310" 
d="M79 88v-88h-79v88h79zM74 666v-149l-16 -353h-36l-17 353v149h69z" />
    <glyph glyph-name="quotedbl" unicode="&#x22;" horiz-adv-x="337" 
d="M134 394l-11 272h57l-11 -272h-35zM11 394l-11 272h57l-11 -272h-35z" />
    <glyph glyph-name="numbersign" unicode="#" horiz-adv-x="579" 
d="M186 413l-23 -147h148l22 147h-147zM460 223h-112l-34 -223h-44l34 223h-147l-35 -223h-43l34 223h-113l1 43h118l23 147h-113l1 43h118l32 210h44l-32 -210h148l32 210h44l-32 -210h106l-2 -43h-111l-22 -147h107z" />
    <glyph glyph-name="dollar" unicode="$" 
d="M238 34q139 21 139 142q0 68 -51 100q-24 16 -66 28l-22 7v-277zM203 629q-133 -9 -133 -128q0 -89 133 -123v251zM357 511q-23 103 -119 117v-259l20 -6q174 -52 174 -182q0 -114 -90 -163q-41 -22 -104 -28v-84h-34v83q-174 6 -204 191l56 8q30 -141 147 -153v285
l-20 6q-126 34 -155 107q-13 34 -13 67q0 164 188 178v40h35v-40q141 -13 176 -159z" />
    <glyph glyph-name="percent" unicode="%" horiz-adv-x="827" 
d="M575 282q-89 0 -89 -132q0 -135 88 -135q86 0 86 120v7q0 3 -1 6q-4 134 -84 134zM138 634q-88 0 -88 -131q0 -136 88 -136q85 0 85 134q0 133 -85 133zM572 -24q-136 0 -136 170q0 179 136 179q137 0 137 -174q0 -175 -137 -175zM573 678l-390 -702h-47l390 702h47z
M136 327q-136 0 -136 172q0 179 136 179q137 0 137 -174q0 -177 -137 -177z" />
    <glyph glyph-name="ampersand" unicode="&#x26;" horiz-adv-x="621" 
d="M325 534q0 38 -26 65q-25 26 -62 26q-38 0 -66 -27q-28 -26 -28 -63q0 -38 55 -110q2 -2 5 -7l3 -4q1 -3 3 -5q116 60 116 125zM169 327q-42 -25 -69 -49q-39 -34 -39 -85q0 -61 44 -106q44 -46 102 -46q84 0 148 95l-13 13l-118 140q-17 20 -24 31l-13 17zM498 296
q-32 -91 -67 -151l14 -15q44 -46 97 -92l-39 -48q-52 37 -107 101q-38 -50 -72 -72q-47 -29 -112 -29q-89 0 -151 56q-61 55 -61 137q0 72 47 119q27 26 41 36q17 12 68 41q-73 93 -73 148q0 64 44 107q44 44 109 44t107 -41q42 -42 42 -105q0 -93 -143 -165l73 -90l74 -85
l11 20q13 25 20 42l21 54z" />
    <glyph glyph-name="quotesingle" unicode="'" horiz-adv-x="168" 
d="M11 394l-11 272h58l-12 -272h-35z" />
    <glyph glyph-name="parenleft" unicode="(" horiz-adv-x="310" 
d="M199 678q-140 -225 -140 -444q0 -223 144 -429h-44q-159 215 -159 432q0 212 158 441h41z" />
    <glyph glyph-name="parenright" unicode=")" horiz-adv-x="310" 
d="M4 -195q140 222 140 442q0 225 -144 431h45q158 -217 158 -434q0 -210 -158 -439h-41z" />
    <glyph glyph-name="asterisk" unicode="*" horiz-adv-x="362" 
d="M169 678l-3 -63l-5 -61l55 25l56 22l16 -47l-58 -16l-57 -14l79 -93l-40 -30l-35 50l-33 53l-63 -103l-41 30l37 47l40 46l-60 14l-57 16l16 47l56 -22l56 -25l-11 124h52z" />
    <glyph glyph-name="plus" unicode="+" horiz-adv-x="500" 
d="M215 365v201h47v-201h216v-47h-215v-201h-47v201h-216v47h215z" />
    <glyph glyph-name="comma" unicode="," horiz-adv-x="258" 
d="M84 88v-88q0 -80 -60 -124l-24 34q40 31 41 90h-36v88h79z" />
    <glyph glyph-name="hyphen" unicode="-" horiz-adv-x="310" 
d="M243 270v-58h-243v58h243z" />
    <glyph glyph-name="period" unicode="." horiz-adv-x="258" 
d="M80 88v-88h-80v88h80z" />
    <glyph glyph-name="slash" unicode="/" horiz-adv-x="258" 
d="M248 678l-203 -873h-45l202 873h46z" />
    <glyph glyph-name="zero" unicode="0" 
d="M212 620q-77 0 -111 -61q-41 -71 -41 -236q0 -152 37 -221q36 -67 113 -67q154 0 154 291q0 294 -152 294zM345 39q-51 -50 -134 -50q-211 0 -211 326q0 203 63 282q55 69 149 69q96 0 146 -66q64 -84 64 -274q0 -211 -77 -287z" />
    <glyph glyph-name="one" unicode="1" 
d="M225 666v-666h-56v557q-37 -35 -75 -60q-44 -28 -94 -47v50q60 34 105 67q54 43 82 99h38z" />
    <glyph glyph-name="two" unicode="2" 
d="M0 0q5 50 27 88q42 68 161 162q137 106 165 159q17 32 17 71q0 62 -41 101t-105 39q-125 0 -150 -146l-59 8q21 184 213 184q89 0 146 -51q56 -51 56 -133q0 -99 -91 -178q-41 -36 -120 -97q-97 -74 -131 -129l-14 -25h356v-53h-430z" />
    <glyph glyph-name="three" unicode="3" 
d="M55 176q31 -141 152 -141q67 0 111 45t44 114q0 138 -146 138q-21 0 -60 -8l6 50q77 0 119 29q51 33 51 98q0 52 -35 85q-36 34 -90 34q-106 0 -142 -131l-57 10q41 167 198 167q80 0 134 -48q53 -48 53 -121q0 -94 -98 -139q50 -11 79 -38q50 -46 50 -125
q0 -92 -60 -149t-156 -57q-171 0 -208 179z" />
    <glyph glyph-name="four" unicode="4" 
d="M309 574l-254 -358h254v358zM0 165v51l320 450h45v-449h91v-51h-91v-166h-56v165h-309z" />
    <glyph glyph-name="five" unicode="5" 
d="M397 657v-52h-277l-43 -227q75 51 147 51q86 0 145 -61q59 -62 59 -150q0 -98 -65 -164q-64 -65 -161 -65q-159 0 -202 175l57 7q29 -136 154 -136q68 0 113 50q44 51 44 128q0 73 -43 119t-110 46q-80 0 -153 -73l-48 7l63 345h320z" />
    <glyph glyph-name="six" unicode="6" 
d="M329 324q-40 44 -102 44q-67 0 -111 -44q-45 -44 -45 -110q0 -75 45 -127q44 -52 108 -52q63 0 104 50t41 127q0 68 -40 112zM134 393q47 27 102 27q85 0 140 -58t55 -148q0 -98 -59 -161q-59 -64 -150 -64q-106 0 -161 77q-61 82 -61 243q0 194 75 286q60 71 161 71
q147 0 180 -154l-57 -6q-29 114 -125 114q-127 0 -160 -152q-8 -40 -10 -59q-3 -25 -6 -85q34 46 76 69z" />
    <glyph glyph-name="seven" unicode="7" 
d="M422 657v-37q-67 -77 -106 -139q-44 -68 -79 -151q-61 -149 -75 -330h-61q12 195 82 346q50 108 147 235l20 26h-350v50h422z" />
    <glyph glyph-name="eight" unicode="8" 
d="M121 584q-37 -36 -37 -90q0 -50 37 -83t93 -33t94 33q37 33 37 83q0 54 -37 90q-38 36 -94 36t-93 -36zM58 186q0 -68 43 -110q42 -41 113 -41t113 41q43 42 43 110q0 145 -156 145t-156 -145zM429 192q0 -89 -60 -146t-155 -57q-94 0 -154 57t-60 146q0 123 122 166
q-95 43 -95 137q0 74 53 123q53 48 134 48q82 0 135 -48q53 -49 53 -123q0 -94 -95 -137q122 -43 122 -166z" />
    <glyph glyph-name="nine" unicode="9" 
d="M102 330q40 -44 102 -44q67 0 111 44q45 44 45 110q0 75 -45 127q-44 52 -108 52q-63 0 -104 -50t-41 -127q0 -68 40 -112zM297 261q-48 -27 -103 -27q-85 0 -139 58q-55 58 -55 148q0 98 59 162t150 64q103 0 161 -78q61 -82 61 -243q0 -356 -236 -356q-147 0 -180 153
l57 7q29 -114 125 -114q128 0 159 151q11 52 17 144q-35 -46 -76 -69z" />
    <glyph glyph-name="colon" unicode=":" horiz-adv-x="258" 
d="M80 482v-88h-80v88h80zM80 88v-88h-80v88h80z" />
    <glyph glyph-name="semicolon" unicode=";" horiz-adv-x="258" 
d="M84 482v-88h-79v88h79zM84 88v-88q0 -80 -60 -124l-24 34q40 31 41 90h-36v88h79z" />
    <glyph glyph-name="less" unicode="&#x3c;" horiz-adv-x="500" 
d="M478 521l-419 -181l419 -185v-50l-478 209v51l478 206v-50z" />
    <glyph glyph-name="equal" unicode="=" horiz-adv-x="500" 
d="M478 294v-47h-478v47h478zM478 437v-47h-478v47h478z" />
    <glyph glyph-name="greater" unicode="&#x3e;" horiz-adv-x="500" 
d="M0 155l418 179l-418 186v51l478 -210v-51l-478 -206v51z" />
    <glyph glyph-name="question" unicode="?" horiz-adv-x="465" 
d="M229 87v-87h-79v87h79zM158 164q-1 7 -1 14v10q0 101 88 180q81 75 81 132q0 52 -37 89q-38 36 -91 36q-103 0 -136 -135l-62 10q42 178 203 178q83 0 134 -49q52 -49 52 -128q0 -82 -96 -171q-52 -48 -65 -76t-13 -90h-57z" />
    <glyph glyph-name="at" unicode="@" horiz-adv-x="714" 
d="M312 182q116 7 116 177q0 103 -95 103q-56 0 -94 -45q-38 -46 -38 -113q0 -122 105 -122h6zM624 132q-54 -67 -96 -95q-72 -47 -176 -47q-151 0 -251 97q-101 97 -101 244t100 247q100 99 248 99q137 0 228 -82t91 -205q0 -181 -159 -243q-34 -13 -59 -13q-47 0 -47 47v7
q0 4 1 7q-42 -57 -109 -57q-64 0 -104 45q-39 44 -39 117q0 90 51 149t128 59q86 0 118 -76l13 63h44l-50 -265q-4 -16 -5 -25q-1 -7 -1 -12q0 -21 21 -21q34 0 85 41q79 61 79 171q0 111 -81 185q-81 73 -204 73q-130 0 -218 -89q-89 -89 -89 -220q0 -130 90 -220t221 -90
q75 0 137 34q42 24 89 75h45z" />
    <glyph glyph-name="A" unicode="A" horiz-adv-x="621" 
d="M441 264l-138 336l-132 -336h270zM153 212l-85 -212h-68l271 666h66l284 -666h-71l-87 212h-310z" />
    <glyph glyph-name="B" unicode="B" horiz-adv-x="621" 
d="M260 373q135 0 135 121q0 85 -76 106q-34 10 -92 10h-163v-237h196zM64 53h208q152 0 152 134q0 129 -149 129h-211v-263zM0 666h251q95 0 151 -45q55 -46 55 -123q0 -94 -95 -148q59 -20 86 -49q41 -46 41 -114q0 -85 -57 -136q-58 -51 -153 -51h-279v666z" />
    <glyph glyph-name="C" unicode="C" horiz-adv-x="672" 
d="M511 466q-55 159 -200 159q-109 0 -177 -81q-68 -82 -68 -213q0 -134 64 -212q63 -79 171 -79q168 0 222 185l58 -16q-67 -220 -276 -220q-139 0 -222 93t-83 250q0 154 85 250q84 96 221 96q195 0 265 -196z" />
    <glyph glyph-name="D" unicode="D" horiz-adv-x="672" 
d="M220 55q108 0 158 38q94 72 94 231q0 241 -157 278q-32 8 -95 8h-157v-555h157zM0 666h256q132 0 207 -88q75 -89 75 -245q0 -157 -75 -245t-207 -88h-256v666z" />
    <glyph glyph-name="E" unicode="E" horiz-adv-x="569" 
d="M426 666v-56h-362v-239h335v-54h-335v-262h376v-55h-440v666h426z" />
    <glyph glyph-name="F" unicode="F" 
d="M395 666v-55h-331v-241h282v-55h-282v-315h-64v666h395z" />
    <glyph glyph-name="G" unicode="G" horiz-adv-x="724" 
d="M612 332v-247q-88 -65 -168 -84q-52 -11 -109 -11q-135 0 -222 71q-113 93 -113 264q0 163 89 258t242 95q216 0 271 -190l-62 -19q-49 157 -213 157q-120 0 -191 -80t-71 -215q0 -155 97 -233q69 -57 167 -57q111 0 199 57l21 16v163h-212v55h275z" />
    <glyph glyph-name="H" unicode="H" horiz-adv-x="672" 
d="M62 666v-287h386v287h62v-666h-61v323h-386v-323h-63v666h62z" />
    <glyph glyph-name="I" unicode="I" horiz-adv-x="258" 
d="M62 666v-666h-62v666h62z" />
    <glyph glyph-name="J" unicode="J" horiz-adv-x="465" 
d="M361 666v-476q0 -200 -187 -200q-164 0 -174 193l58 7q10 -149 122 -149q118 0 118 149v476h63z" />
    <glyph glyph-name="K" unicode="K" horiz-adv-x="621" 
d="M63 666v-348l377 348h85l-300 -272l312 -394h-83l-271 356l-120 -110v-246h-63v666h63z" />
    <glyph glyph-name="L" unicode="L" 
d="M63 666v-611h336v-55h-399v666h63z" />
    <glyph glyph-name="M" unicode="M" horiz-adv-x="775" 
d="M89 666l215 -577l217 577h90v-666h-63l10 598l-228 -598h-52l-225 598l9 -598h-62v666h89z" />
    <glyph glyph-name="N" unicode="N" horiz-adv-x="672" 
d="M63 666l389 -575l-5 575h63v-666h-67l-385 568l5 -568h-63v666h63z" />
    <glyph glyph-name="O" unicode="O" horiz-adv-x="724" 
d="M134 545q-68 -81 -68 -212t68 -212q67 -81 177 -81q109 0 177 81q67 81 67 212t-67 212q-68 81 -177 81q-110 0 -177 -81zM537 585q84 -94 84 -252t-84 -251q-83 -93 -226 -93t-227 93t-84 251t84 252q84 93 227 93q142 0 226 -93z" />
    <glyph glyph-name="P" unicode="P" horiz-adv-x="569" 
d="M63 337h151q166 0 166 136q0 95 -73 122q-32 13 -93 13h-151v-271zM232 666q108 0 160 -52q54 -56 54 -138q0 -89 -58 -142t-156 -53h-168v-281h-64v666h232z" />
    <glyph glyph-name="Q" unicode="Q" horiz-adv-x="724" 
d="M471 102q84 79 84 231q0 131 -67 212q-68 81 -177 81q-110 -1 -177 -81q-68 -81 -68 -212t68 -212q67 -81 176 -81q63 0 117 31q-44 36 -111 57l15 47q71 -17 137 -71zM525 65l18 -13q35 -26 93 -52l-18 -43q-58 21 -135 74l-2 2q-71 -44 -170 -44q-143 0 -227 93
t-84 251t84 252q84 93 227 93q142 0 226 -93q84 -94 84 -252q0 -170 -99 -267z" />
    <glyph glyph-name="R" unicode="R" horiz-adv-x="621" 
d="M63 361h176q176 0 176 127q0 89 -76 110q-39 12 -97 12h-179v-249zM280 666q202 0 202 -178q0 -158 -193 -178q69 -34 122 -114l127 -196h-80l-106 164q-70 112 -123 132q-28 10 -70 10h-96v-306h-63v666h280z" />
    <glyph glyph-name="S" unicode="S" horiz-adv-x="569" 
d="M401 488q-4 51 -24 80q-40 58 -133 58q-69 0 -112 -34t-43 -87q0 -95 156 -127q97 -19 143 -42q45 -22 71 -62q24 -40 24 -90q0 -88 -65 -142q-64 -53 -171 -53q-228 0 -247 211l63 6q18 -166 180 -166q80 0 129 39q50 39 50 101q0 79 -83 109q-40 14 -91 24
q-160 29 -201 105q-20 37 -20 82q0 80 58 129q59 49 154 49q213 0 224 -188z" />
    <glyph glyph-name="T" unicode="T" 
d="M472 666v-58h-204v-608h-63v608h-205v58h472z" />
    <glyph glyph-name="U" unicode="U" horiz-adv-x="672" 
d="M64 666v-426q0 -112 52 -157q52 -43 139 -43q191 0 191 198v428h64v-421q0 -256 -253 -256q-257 0 -257 255v422h64z" />
    <glyph glyph-name="V" unicode="V" horiz-adv-x="569" 
d="M67 666l211 -598l217 598h63l-248 -666h-65l-245 666h67z" />
    <glyph glyph-name="W" unicode="W" horiz-adv-x="828" 
d="M64 666l145 -577l155 577h77l154 -574l150 574h61l-180 -666h-62l-161 596l-163 -596h-62l-178 666h64z" />
    <glyph glyph-name="X" unicode="X" horiz-adv-x="569" 
d="M110 666l175 -267l192 267h65l-221 -312l240 -354h-76l-200 297l-210 -297h-75l250 348l-215 318h75z" />
    <glyph glyph-name="Y" unicode="Y" horiz-adv-x="569" 
d="M74 666l203 -320l208 320h72l-251 -379v-287h-63v287l-243 379h74z" />
    <glyph glyph-name="Z" unicode="Z" horiz-adv-x="569" 
d="M508 666v-54l-435 -558h445v-54h-518v58l430 554h-393v54h471z" />
    <glyph glyph-name="bracketleft" unicode="[" horiz-adv-x="310" 
d="M215 666v-47h-158v-759h158v-47h-215v853h215z" />
    <glyph glyph-name="backslash" unicode="\" horiz-adv-x="258" 
d="M47 678l202 -873h-45l-204 873h47z" />
    <glyph glyph-name="bracketright" unicode="]" horiz-adv-x="310" 
d="M0 -186v47h158v759h-158v47h214v-853h-214z" />
    <glyph glyph-name="asciicircum" unicode="^" horiz-adv-x="500" 
d="M0 384l191 282h57l192 -282h-55l-166 241l-165 -241h-54z" />
    <glyph glyph-name="underscore" unicode="_" horiz-adv-x="500" 
d="M500 -132h-500v53h500v-53z" />
    <glyph glyph-name="grave" unicode="`" horiz-adv-x="0" 
d="M148 546h-46l-102 120h91z" />
    <glyph glyph-name="a" unicode="a" 
d="M344 259q-42 -17 -153 -36q-76 -14 -104 -34t-28 -62q0 -87 106 -87q57 0 106 29t62 71q11 33 11 88v31zM10 351q27 142 208 142q126 0 162 -61q22 -39 22 -144l-2 -136q0 -89 29 -152h-62q-12 32 -17 73q-77 -83 -198 -83q-152 0 -152 133q0 102 99 131q32 10 101 20
q100 14 144 30v36q0 109 -126 109t-150 -107z" />
    <glyph glyph-name="b" unicode="b" horiz-adv-x="569" 
d="M349 390q-44 56 -117 56q-80 0 -128 -55q-48 -56 -48 -149q0 -206 172 -206q74 0 120 57q46 56 46 149q0 92 -45 148zM56 404q48 59 107 78q32 11 75 11q98 0 156 -67q58 -68 58 -181q0 -118 -59 -187q-59 -68 -160 -68q-106 0 -177 83v-73h-56v666h56v-262z" />
    <glyph glyph-name="c" unicode="c" 
d="M366 337q-32 109 -149 109q-73 0 -115 -54q-43 -53 -43 -144q0 -98 43 -156q44 -58 118 -58q109 0 157 130l56 -8q-40 -166 -216 -166q-217 0 -217 252q0 251 220 251q157 0 206 -147z" />
    <glyph glyph-name="d" unicode="d" horiz-adv-x="569" 
d="M104 93q46 -57 120 -57q172 0 172 197q0 120 -65 175q-49 38 -111 38q-73 0 -117 -56q-45 -56 -45 -148q0 -93 46 -149zM396 666h56v-666h-56v73q-76 -83 -182 -83q-98 0 -156 69q-58 70 -58 186q0 114 58 181q59 67 157 67q103 0 162 -65l19 -24v262z" />
    <glyph glyph-name="e" unicode="e" 
d="M370 281q-14 167 -152 167t-157 -167h309zM60 234q2 -199 162 -199q107 0 148 117l55 -9q-53 -153 -206 -153q-219 0 -219 251q0 118 59 185q58 67 160 67q210 0 212 -259h-371z" />
    <glyph glyph-name="f" unicode="f" horiz-adv-x="258" 
d="M78 482v51q0 145 117 145q23 0 71 -12l-10 -45q-33 4 -47 4q-75 0 -75 -100v-42h101v-42h-101v-441h-56v440h-78v42h78z" />
    <glyph glyph-name="g" unicode="g" horiz-adv-x="569" 
d="M226 445q-167 0 -167 -203q0 -95 45 -152q45 -56 121 -56q78 0 124 54q46 55 46 147q0 210 -169 210zM451 482v-444q0 -233 -234 -233q-188 0 -198 142l56 -11q18 -85 136 -85q183 0 183 175v47q-69 -84 -180 -84q-97 0 -155 68q-59 69 -59 182q0 115 59 184
q58 70 155 70q62 0 108 -24q40 -21 72 -68v81h57z" />
    <glyph glyph-name="h" unicode="h" 
d="M57 666v-255q63 82 155 82q108 0 146 -78q18 -37 18 -100v-315h-57v299q0 145 -112 145q-53 0 -94 -35q-42 -36 -50 -89q-6 -31 -6 -111v-209h-57v666h57z" />
    <glyph glyph-name="i" unicode="i" horiz-adv-x="206" 
d="M56 666v-85h-56v85h56zM56 482v-482h-56v482h56z" />
    <glyph glyph-name="j" unicode="j" horiz-adv-x="206" 
d="M158 666v-83h-56v83h56zM158 482v-544q-1 -133 -101 -133q-21 0 -57 10l12 49q19 -5 34 -5q33 0 45 20q11 20 11 76v527h56z" />
    <glyph glyph-name="k" unicode="k" horiz-adv-x="465" 
d="M57 666v-407l235 223h80l-201 -180l216 -302h-73l-185 264l-72 -65v-199h-57v666h57z" />
    <glyph glyph-name="l" unicode="l" horiz-adv-x="206" 
d="M56 666v-666h-56v666h56z" />
    <glyph glyph-name="m" unicode="m" horiz-adv-x="775" 
d="M57 482v-69q59 80 147 80q94 0 128 -80q65 80 151 80q144 0 144 -165v-328h-56v299q0 145 -99 145q-129 0 -129 -207v-237h-54v305q0 138 -96 138q-136 0 -136 -186v-257h-57v482h57z" />
    <glyph glyph-name="n" unicode="n" 
d="M57 482v-71q63 82 155 82q108 0 146 -78q18 -37 18 -100v-315h-57v299q0 145 -112 145q-53 0 -94 -35q-42 -36 -50 -89q-6 -31 -6 -111v-209h-57v482h57z" />
    <glyph glyph-name="o" unicode="o" 
d="M218 447q-158 0 -158 -205q0 -95 43 -151q43 -57 115 -57q70 0 113 55q42 56 42 148q0 210 -155 210zM215 -10q-98 0 -157 67q-58 67 -58 181q0 255 216 255q85 0 140 -49q76 -67 76 -204q0 -250 -217 -250z" />
    <glyph glyph-name="p" unicode="p" horiz-adv-x="569" 
d="M349 390q-44 56 -117 56q-80 0 -128 -55q-48 -56 -48 -149q0 -206 172 -206q74 0 120 57q46 56 46 149q0 92 -45 148zM56 404q75 89 182 89q98 0 156 -67q58 -68 58 -181q0 -118 -59 -187q-59 -68 -160 -68q-106 0 -177 83v-257h-56v667h56v-79z" />
    <glyph glyph-name="q" unicode="q" horiz-adv-x="569" 
d="M104 93q46 -57 120 -57q172 0 172 197q0 120 -65 175q-49 38 -111 38q-73 0 -117 -56q-45 -56 -45 -148q0 -93 46 -149zM396 482h56v-667h-56v258q-76 -83 -181 -83q-98 0 -157 69q-58 70 -58 186q0 114 58 181q59 67 157 67q103 0 162 -65l19 -24v78z" />
    <glyph glyph-name="r" unicode="r" horiz-adv-x="310" 
d="M51 482v-97q35 108 112 108q40 0 86 -29l-22 -49q-44 19 -65 19q-105 0 -105 -208v-226h-57v482h51z" />
    <glyph glyph-name="s" unicode="s" horiz-adv-x="465" 
d="M310 358q-28 89 -122 89q-116 0 -116 -78q0 -37 31 -57t115 -38q168 -35 168 -138q0 -147 -189 -147q-164 0 -197 141l58 10q27 -106 141 -106q127 0 127 94q0 64 -141 94q-170 36 -170 136q0 61 47 98t124 37q147 0 180 -128z" />
    <glyph glyph-name="t" unicode="t" horiz-adv-x="258" 
d="M124 483h91v-42h-91v-317q0 -85 54 -85q12 0 45 6l7 -45q-41 -7 -60 -7q-59 0 -81 26q-22 27 -22 97v324h-67v42h67v124l57 37v-160z" />
    <glyph glyph-name="u" unicode="u" 
d="M319 0v71q-64 -81 -155 -81q-108 0 -146 77q-18 35 -18 100v315h57v-299q0 -145 112 -145q52 0 94 35q41 35 50 88q6 38 6 112v209h57v-482h-57z" />
    <glyph glyph-name="v" unicode="v" horiz-adv-x="465" 
d="M60 482l159 -413l160 413h60l-193 -482h-52l-194 482h60z" />
    <glyph glyph-name="w" unicode="w" horiz-adv-x="672" 
d="M60 482l130 -411l115 411h52l115 -411l131 411h58l-161 -482h-58l-111 396l-110 -396h-58l-163 482h60z" />
    <glyph glyph-name="x" unicode="x" horiz-adv-x="465" 
d="M84 482l141 -184l140 184h71l-179 -225l192 -257h-70l-154 209l-155 -209h-70l192 251l-179 231h71z" />
    <glyph glyph-name="y" unicode="y" horiz-adv-x="465" 
d="M62 482l158 -417l166 417h55l-228 -578q-39 -99 -112 -99q-18 0 -54 9l-7 56q36 -8 52 -8q44 0 64 53l34 85l-190 482h62z" />
    <glyph glyph-name="z" unicode="z" horiz-adv-x="465" 
d="M409 482v-38l-336 -395h351v-49h-424v49l330 386h-312v47h391z" />
    <glyph glyph-name="braceleft" unicode="{" horiz-adv-x="258" 
d="M109 132v-172q0 -61 19 -81q18 -21 76 -22v-40h-14q-133 0 -133 148v167q0 80 -57 96v40q57 16 57 96v183q0 135 133 135h14v-40q-58 -2 -76 -22q-19 -19 -19 -78v-180q0 -84 -61 -114q61 -31 61 -116z" />
    <glyph glyph-name="bar" unicode="|" horiz-adv-x="500" 
d="M46 666v-837h-46v837h46z" />
    <glyph glyph-name="braceright" unicode="}" horiz-adv-x="258" 
d="M95 365v173q0 62 -19 82q-18 20 -76 21v41h14q133 0 133 -148v-167q0 -81 57 -98v-39q-57 -18 -57 -97v-182q0 -135 -133 -135l-14 1v40q58 3 76 22q19 19 19 78v180q0 83 61 113q-61 30 -61 115z" />
    <glyph glyph-name="asciitilde" unicode="~" horiz-adv-x="500" 
d="M489 685q-64 -117 -132 -117q-27 0 -115 40l-47 21q-42 18 -62 18q-48 0 -103 -92l-30 26q67 112 130 112q21 0 44 -8q22 -7 85 -36q45 -21 65 -28t31 -7q53 0 103 96z" />
    <glyph glyph-name="uni00A0" unicode="&#xa0;" horiz-adv-x="233" 
 />
    <glyph glyph-name="exclamdown" unicode="&#xa1;" horiz-adv-x="310" 
d="M0 393v89h78v-89h-78zM4 -184v149l17 352h36l16 -351v-150h-69z" />
    <glyph glyph-name="cent" unicode="&#xa2;" 
d="M259 440q-22 6 -42 6q-73 0 -115 -54q-43 -53 -43 -145q0 -141 86 -193zM297 426l-114 -387q16 -5 35 -5q111 0 159 130l56 -8q-39 -166 -214 -166q-23 0 -47 3h-2l-52 -171l-39 11l50 170q-129 49 -129 238q0 252 220 252q26 0 54 -3l52 176l39 -13l-52 -173
q88 -37 113 -134l-60 -9q-18 59 -67 88z" />
    <glyph glyph-name="sterling" unicode="&#xa3;" 
d="M295 356v-47h-147q9 -39 9 -60q0 -89 -80 -184q51 12 86 12q47 0 111 -19q47 -13 64 -13q39 0 106 28l25 -54q-67 -30 -121 -30q-34 0 -97 18q-75 23 -106 23q-55 0 -118 -41l-27 56q98 88 98 186q0 30 -11 78h-87v47h72l-5 19q-22 73 -22 111q0 83 57 138q58 54 144 54
q166 0 198 -167l-58 -10q-28 129 -139 129q-61 0 -101 -39q-39 -39 -39 -100q0 -43 22 -115l6 -20h160z" />
    <glyph glyph-name="currency" unicode="&#xa4;" horiz-adv-x="666" 
d="M148 478q-52 -52 -52 -125t52 -125t125 -52q72 0 123 52q52 52 51 125q0 72 -51 125q-51 52 -121 52q-74 0 -127 -52zM93 211q-51 67 -51 142q0 76 52 143l-94 94l33 33l94 -93q70 52 145 52q74 0 143 -50l92 91l33 -34l-91 -91q53 -66 53 -146q0 -75 -51 -141l92 -92
l-33 -34l-92 92q-68 -54 -145 -54q-75 0 -147 54l-92 -92l-34 34z" />
    <glyph glyph-name="yen" unicode="&#xa5;" horiz-adv-x="520" 
d="M495 403v-39h-153l-54 -89h207v-39h-209v-236h-59v236h-199v39h196l-53 89h-144v39h123l-150 263h67l190 -342l191 342h65l-151 -263h133z" />
    <glyph glyph-name="section" unicode="&#xa7;" 
d="M150 392q-98 -35 -98 -94q0 -52 69 -97l147 -95q105 30 105 94q0 48 -65 90zM328 519q-22 108 -122 108q-109 0 -109 -87q0 -48 53 -81l203 -132q74 -50 74 -120q0 -83 -114 -132q81 -53 81 -127q0 -62 -50 -102q-51 -41 -128 -41q-94 0 -142 56q-31 38 -49 105l61 9
q24 -121 130 -121q123 0 123 92q0 48 -74 96l-179 117q-86 56 -86 136q0 83 109 126q-68 48 -68 119q0 60 47 99q46 39 119 39q153 0 181 -153z" />
    <glyph glyph-name="dieresis" unicode="&#xa8;" horiz-adv-x="0" 
d="M196 630v-79h-56v79h56zM56 630v-79h-56v79h56z" />
    <glyph glyph-name="copyright" unicode="&#xa9;" horiz-adv-x="784" 
d="M535 296q-6 -76 -56 -122q-51 -47 -128 -47q-87 0 -141 58q-54 57 -54 150t55 151q54 58 142 58q70 0 120 -39q50 -40 56 -100h-44q-21 100 -133 100q-67 0 -109 -47q-41 -46 -41 -123t41 -123t108 -46q123 0 139 130h45zM128 552q-90 -91 -90 -219t90 -219t217 -91
t217 91t90 219t-90 219q-90 90 -217 90t-217 -90zM590 577q101 -101 101 -244t-101 -244q-102 -101 -245 -101q-143 1 -244 101q-101 101 -101 244t101 244q102 101 245 101t244 -101z" />
    <glyph glyph-name="ordfeminine" unicode="&#xaa;" horiz-adv-x="438" 
d="M212 531q-14 -10 -42 -12l-43 -3q-84 -7 -84 -61q0 -57 68 -57q101 0 101 113v20zM289 285h-288v30h288v-30zM221 375q-7 14 -8 35v11q-45 -54 -108 -54q-105 0 -105 86q0 83 125 92l49 4q39 4 39 35q0 63 -76 63q-73 0 -81 -72h-40q7 103 124 103q114 0 114 -95v-128
q0 -58 10 -80h-43z" />
    <glyph glyph-name="guillemotleft" unicode="&#xab;" 
d="M377 445l-119 -205l119 -208h-53l-130 208l133 205h50zM191 445l-127 -205l127 -208h-48l-143 208l142 205h49z" />
    <glyph glyph-name="logicalnot" unicode="&#xac;" horiz-adv-x="500" 
d="M434 220h-434v43h478v-263h-44v220z" />
    <glyph glyph-name="macron" unicode="&#xaf;" horiz-adv-x="0" 
 />
    <glyph glyph-name="degree" unicode="&#xb0;" horiz-adv-x="500" 
d="M70 612q-30 -30 -30 -73t30 -73q30 -31 72 -31q43 0 72 31q30 30 30 73t-30 73q-29 30 -72 30q-42 0 -72 -30zM243 638q42 -41 42 -99t-42 -99q-41 -41 -100 -41t-101 41t-42 99t42 99t101 41t100 -41z" />
    <glyph glyph-name="plusminus" unicode="&#xb1;" horiz-adv-x="500" 
d="M478 119v-47h-478v47h478zM215 391v202h47v-201h216v-47h-215v-185h-47v185h-216v46h215z" />
    <glyph glyph-name="acute" unicode="&#xb4;" horiz-adv-x="0" 
d="M148 666l-102 -120h-46l57 120h91z" />
    <glyph glyph-name="mu" unicode="&#xb5;" horiz-adv-x="500" 
d="M0 481h55v-277q0 -100 51 -141q37 -31 84 -31q64 0 105 51t41 131v267h55v-481h-54v93q-51 -107 -147 -107q-86 0 -135 78v-230h-55v647z" />
    <glyph glyph-name="paragraph" unicode="&#xb6;" horiz-adv-x="539" 
d="M200 314q-3 -1 -8 -1h-8q-81 0 -132 49q-52 49 -52 126q0 125 107 162q48 17 111 17h221v-32h-48v-734h-40v734h-110v-734h-41v413z" />
    <glyph glyph-name="periodcentered" unicode="&#xb7;" horiz-adv-x="258" 
d="M89 372v-88h-89v88h89z" />
    <glyph glyph-name="cedilla" unicode="&#xb8;" horiz-adv-x="0" 
 />
    <glyph glyph-name="ordmasculine" unicode="&#xba;" horiz-adv-x="445" 
d="M43 523q0 -122 102 -122q101 0 101 120q0 124 -101 124q-102 0 -102 -122zM290 285h-289v30h289v-30zM289 521q0 -154 -145 -154q-65 0 -105 43q-39 42 -39 112t40 113t105 43q144 0 144 -157z" />
    <glyph glyph-name="guillemotright" unicode="&#xbb;" 
d="M0 32l119 205l-119 208h54l129 -208l-133 -205h-50zM187 32l126 205l-127 208h49l142 -208l-142 -205h-48z" />
    <glyph glyph-name="questiondown" unicode="&#xbf;" horiz-adv-x="465" 
d="M161 394v88h78v-88h-78zM232 317v-24q0 -100 -88 -180q-81 -72 -81 -131q0 -51 37 -88t91 -37q102 0 135 136l62 -11q-42 -177 -203 -177q-82 0 -134 49q-51 49 -51 127q0 81 96 170q52 49 65 77t13 89h58z" />
    <glyph glyph-name="Agrave" unicode="&#xc0;" horiz-adv-x="621" 
d="M441 264l-138 336l-132 -336h270zM153 212l-85 -212h-68l271 666h66l284 -666h-71l-87 212h-310zM384 733h-46l-102 120h91z" />
    <glyph glyph-name="Aacute" unicode="&#xc1;" horiz-adv-x="621" 
d="M441 264l-138 336l-132 -336h270zM153 212l-85 -212h-68l271 666h66l284 -666h-71l-87 212h-310zM384 853l-102 -120h-46l57 120h91z" />
    <glyph glyph-name="Acircumflex" unicode="&#xc2;" horiz-adv-x="621" 
d="M441 264l-138 336l-132 -336h270zM153 212l-85 -212h-68l271 666h66l284 -666h-71l-87 212h-310zM347 853l89 -120h-62l-64 83l-62 -83h-64l89 120h74z" />
    <glyph glyph-name="Atilde" unicode="&#xc3;" horiz-adv-x="621" 
d="M441 264l-138 336l-132 -336h270zM153 212l-85 -212h-68l271 666h66l284 -666h-71l-87 212h-310zM446 818q-6 -85 -64 -85q-21 0 -77 22q-43 15 -59 15q-28 0 -32 -37h-40q5 86 60 86q15 0 75 -18l44 -14q12 -4 19 -4q26 0 31 35h43z" />
    <glyph glyph-name="Adieresis" unicode="&#xc4;" horiz-adv-x="621" 
d="M441 264l-138 336l-132 -336h270zM153 212l-85 -212h-68l271 666h66l284 -666h-71l-87 212h-310zM408 812v-79h-56v79h56zM268 812v-79h-56v79h56z" />
    <glyph glyph-name="Aring" unicode="&#xc5;" horiz-adv-x="621" 
d="M441 264l-138 336l-132 -336h270zM153 212l-85 -212h-68l271 666h66l284 -666h-71l-87 212h-310zM303 850q-52 0 -52 -52q0 -51 52 -51q53 0 53 51q0 52 -53 52zM303 718q-81 0 -81 81q0 82 81 82t81 -82q0 -81 -81 -81z" />
    <glyph glyph-name="AE" unicode="&#xc6;" horiz-adv-x="931" 
d="M454 611h-94l-168 -353h262v353zM165 203l-98 -203h-67l320 666h540v-55h-342v-240h319v-56h-318v-260h352v-55h-417v203h-289z" />
    <glyph glyph-name="Ccedilla" unicode="&#xc7;" horiz-adv-x="672" 
d="M262 -9q-121 14 -192 106q-70 92 -70 235q0 154 85 250q84 96 221 96q190 0 265 -196l-60 -16q-55 159 -200 159q-109 0 -177 -81q-68 -82 -68 -213q0 -134 64 -213q64 -80 171 -80q98 0 155 62q38 42 64 126l61 -17q-65 -220 -268 -220h-2l-7 -30q74 -15 74 -67
q0 -81 -155 -81l-28 2v41l33 -1q92 0 92 41q0 37 -74 41l18 56h-2z" />
    <glyph glyph-name="Egrave" unicode="&#xc8;" horiz-adv-x="569" 
d="M426 666v-56h-362v-239h335v-54h-335v-262h376v-55h-440v666h426zM294 733h-46l-102 120h91z" />
    <glyph glyph-name="Eacute" unicode="&#xc9;" horiz-adv-x="569" 
d="M426 666v-56h-362v-239h335v-54h-335v-262h376v-55h-440v666h426zM294 853l-102 -120h-46l57 120h91z" />
    <glyph glyph-name="Ecircumflex" unicode="&#xca;" horiz-adv-x="569" 
d="M426 666v-56h-362v-239h335v-54h-335v-262h376v-55h-440v666h426zM257 853l89 -120h-62l-64 83l-62 -83h-64l89 120h74z" />
    <glyph glyph-name="Edieresis" unicode="&#xcb;" horiz-adv-x="569" 
d="M426 666v-56h-362v-239h335v-54h-335v-262h376v-55h-440v666h426zM318 812v-79h-56v79h56zM178 812v-79h-56v79h56z" />
    <glyph glyph-name="Igrave" unicode="&#xcc;" horiz-adv-x="258" 
d="M105 666v-666h-62v666h62zM148 733h-46l-102 120h91z" />
    <glyph glyph-name="Iacute" unicode="&#xcd;" horiz-adv-x="258" 
d="M105 666v-666h-62v666h62zM148 853l-102 -120h-46l57 120h91z" />
    <glyph glyph-name="Icircumflex" unicode="&#xce;" horiz-adv-x="258" 
d="M157 666v-666h-62v666h62zM163 853l89 -120h-62l-64 83l-62 -83h-64l89 120h74z" />
    <glyph glyph-name="Idieresis" unicode="&#xcf;" horiz-adv-x="258" 
d="M129 666v-666h-62v666h62zM196 812v-79h-56v79h56zM56 812v-79h-56v79h56z" />
    <glyph glyph-name="Ntilde" unicode="&#xd1;" horiz-adv-x="672" 
d="M63 666l389 -575l-5 575h63v-666h-67l-385 568l5 -568h-63v666h63zM391 818q-6 -85 -64 -85q-21 0 -77 22q-43 15 -59 15q-28 0 -32 -37h-40q5 86 60 86q15 0 75 -18l44 -14q12 -4 19 -4q26 0 31 35h43z" />
    <glyph glyph-name="Ograve" unicode="&#xd2;" horiz-adv-x="724" 
d="M134 545q-68 -81 -68 -212t68 -212q67 -81 177 -81q109 0 177 81q67 81 67 212t-67 212q-68 81 -177 81q-110 0 -177 -81zM537 585q84 -94 84 -252t-84 -251q-83 -93 -226 -93t-227 93t-84 251t84 252q84 93 227 93q142 0 226 -93zM385 745h-46l-102 120h91z" />
    <glyph glyph-name="Oacute" unicode="&#xd3;" horiz-adv-x="724" 
d="M134 545q-68 -81 -68 -212t68 -212q67 -81 177 -81q109 0 177 81q67 81 67 212t-67 212q-68 81 -177 81q-110 0 -177 -81zM537 585q84 -94 84 -252t-84 -251q-83 -93 -226 -93t-227 93t-84 251t84 252q84 93 227 93q142 0 226 -93zM385 865l-102 -120h-46l57 120h91z" />
    <glyph glyph-name="Ocircumflex" unicode="&#xd4;" horiz-adv-x="724" 
d="M134 545q-68 -81 -68 -212t68 -212q67 -81 177 -81q109 0 177 81q67 81 67 212t-67 212q-68 81 -177 81q-110 0 -177 -81zM537 585q84 -94 84 -252t-84 -251q-83 -93 -226 -93t-227 93t-84 251t84 252q84 93 227 93q142 0 226 -93zM348 865l89 -120h-62l-64 83l-62 -83
h-64l89 120h74z" />
    <glyph glyph-name="Otilde" unicode="&#xd5;" horiz-adv-x="724" 
d="M134 545q-68 -81 -68 -212t68 -212q67 -81 177 -81q109 0 177 81q67 81 67 212t-67 212q-68 81 -177 81q-110 0 -177 -81zM537 585q84 -94 84 -252t-84 -251q-83 -93 -226 -93t-227 93t-84 251t84 252q84 93 227 93q142 0 226 -93zM447 830q-6 -85 -64 -85q-21 0 -77 22
q-43 15 -59 15q-28 0 -32 -37h-40q5 86 60 86q15 0 75 -18l44 -14q12 -4 19 -4q26 0 31 35h43z" />
    <glyph glyph-name="Odieresis" unicode="&#xd6;" horiz-adv-x="724" 
d="M134 545q-68 -81 -68 -212t68 -212q67 -81 177 -81q109 0 177 81q67 81 67 212t-67 212q-68 81 -177 81q-110 0 -177 -81zM537 585q84 -94 84 -252t-84 -251q-83 -93 -226 -93t-227 93t-84 251t84 252q84 93 227 93q142 0 226 -93zM409 824v-79h-56v79h56zM269 824v-79
h-56v79h56z" />
    <glyph glyph-name="Oslash" unicode="&#xd8;" horiz-adv-x="724" 
d="M488 553q-62 72 -171 72t-176 -81q-68 -81 -68 -211q0 -113 50 -190zM149 110q76 -70 167 -70q111 0 179 80q67 80 67 211q0 111 -48 189zM556 568q72 -82 72 -236q0 -174 -103 -271q-78 -72 -208 -72q-133 0 -209 75l-77 -85l-31 26l80 90q-73 90 -73 238q0 157 85 251
q84 94 225 94q136 0 213 -79l76 85l30 -27z" />
    <glyph glyph-name="Ugrave" unicode="&#xd9;" horiz-adv-x="672" 
d="M64 666v-426q0 -112 52 -157q52 -43 139 -43q191 0 191 198v428h64v-421q0 -256 -253 -256q-257 0 -257 255v422h64zM329 733h-46l-102 120h91z" />
    <glyph glyph-name="Uacute" unicode="&#xda;" horiz-adv-x="672" 
d="M64 666v-426q0 -112 52 -157q52 -43 139 -43q191 0 191 198v428h64v-421q0 -256 -253 -256q-257 0 -257 255v422h64zM329 853l-102 -120h-46l57 120h91z" />
    <glyph glyph-name="Ucircumflex" unicode="&#xdb;" horiz-adv-x="672" 
d="M64 666v-426q0 -112 52 -157q52 -43 139 -43q191 0 191 198v428h64v-421q0 -256 -253 -256q-257 0 -257 255v422h64zM292 853l89 -120h-62l-64 83l-62 -83h-64l89 120h74z" />
    <glyph glyph-name="Udieresis" unicode="&#xdc;" horiz-adv-x="672" 
d="M64 666v-426q0 -112 52 -157q52 -43 139 -43q191 0 191 198v428h64v-421q0 -256 -253 -256q-257 0 -257 255v422h64zM353 812v-79h-56v79h56zM213 812v-79h-56v79h56z" />
    <glyph glyph-name="germandbls" unicode="&#xdf;" horiz-adv-x="465" 
d="M0 498q0 100 57 144q47 36 112 36q67 0 109 -34q43 -34 43 -88q0 -43 -45 -112q-39 -62 -39 -89q0 -23 49 -63q106 -85 106 -157q0 -61 -42 -103t-102 -42q-77 0 -136 80l52 28q35 -56 84 -56q34 0 59 26q26 27 26 62q0 55 -95 125q-65 47 -65 94q0 20 9 41q10 21 44 76
q35 60 35 91q0 70 -92 70q-112 0 -112 -145v-482h-57v498z" />
    <glyph glyph-name="agrave" unicode="&#xe0;" 
d="M344 259q-42 -17 -153 -36q-76 -14 -104 -34t-28 -62q0 -87 106 -87q57 0 106 29t62 71q11 33 11 88v31zM10 351q27 142 208 142q126 0 162 -61q22 -39 22 -144l-2 -136q0 -89 29 -152h-62q-12 32 -17 73q-77 -83 -198 -83q-152 0 -152 133q0 102 99 131q32 10 101 20
q100 14 144 30v36q0 109 -126 109t-150 -107zM288 560h-46l-102 120h91z" />
    <glyph glyph-name="aacute" unicode="&#xe1;" 
d="M344 259q-42 -17 -153 -36q-76 -14 -104 -34t-28 -62q0 -87 106 -87q57 0 106 29t62 71q11 33 11 88v31zM10 351q27 142 208 142q126 0 162 -61q22 -39 22 -144l-2 -136q0 -89 29 -152h-62q-12 32 -17 73q-77 -83 -198 -83q-152 0 -152 133q0 102 99 131q32 10 101 20
q100 14 144 30v36q0 109 -126 109t-150 -107zM289 680l-102 -120h-46l57 120h91z" />
    <glyph glyph-name="acircumflex" unicode="&#xe2;" 
d="M344 259q-42 -17 -153 -36q-76 -14 -104 -34t-28 -62q0 -87 106 -87q57 0 106 29t62 71q11 33 11 88v31zM10 351q27 142 208 142q126 0 162 -61q22 -39 22 -144l-2 -136q0 -89 29 -152h-62q-12 32 -17 73q-77 -83 -198 -83q-152 0 -152 133q0 102 99 131q32 10 101 20
q100 14 144 30v36q0 109 -126 109t-150 -107zM252 680l89 -120h-62l-64 83l-62 -83h-64l89 120h74z" />
    <glyph glyph-name="atilde" unicode="&#xe3;" 
d="M344 259q-42 -17 -153 -36q-76 -14 -104 -34t-28 -62q0 -87 106 -87q57 0 106 29t62 71q11 33 11 88v31zM10 351q27 142 208 142q126 0 162 -61q22 -39 22 -144l-2 -136q0 -89 29 -152h-62q-12 32 -17 73q-77 -83 -198 -83q-152 0 -152 133q0 102 99 131q32 10 101 20
q100 14 144 30v36q0 109 -126 109t-150 -107zM351 645q-6 -85 -64 -85q-21 0 -77 22q-43 15 -59 15q-28 0 -32 -37h-40q5 86 60 86q15 0 75 -18l44 -14q12 -4 19 -4q26 0 31 35h43z" />
    <glyph glyph-name="adieresis" unicode="&#xe4;" 
d="M344 259q-42 -17 -153 -36q-76 -14 -104 -34t-28 -62q0 -87 106 -87q57 0 106 29t62 71q11 33 11 88v31zM10 351q27 142 208 142q126 0 162 -61q22 -39 22 -144l-2 -136q0 -89 29 -152h-62q-12 32 -17 73q-77 -83 -198 -83q-152 0 -152 133q0 102 99 131q32 10 101 20
q100 14 144 30v36q0 109 -126 109t-150 -107zM313 639v-79h-56v79h56zM173 639v-79h-56v79h56z" />
    <glyph glyph-name="aring" unicode="&#xe5;" 
d="M344 259q-42 -17 -153 -36q-76 -14 -104 -34t-28 -62q0 -87 106 -87q57 0 106 29t62 71q11 33 11 88v31zM10 351q27 142 208 142q126 0 162 -61q22 -39 22 -144l-2 -136q0 -89 29 -152h-62q-12 32 -17 73q-77 -83 -198 -83q-152 0 -152 133q0 102 99 131q32 10 101 20
q100 14 144 30v36q0 109 -126 109t-150 -107zM214 692q-52 0 -52 -52q0 -51 52 -51q53 0 53 51q0 52 -53 52zM214 560q-81 0 -81 81q0 82 81 82t81 -82q0 -81 -81 -81z" />
    <glyph glyph-name="ae" unicode="&#xe6;" horiz-adv-x="827" 
d="M326 251q-74 -18 -150 -30q-119 -18 -119 -96q0 -90 111 -90q104 0 143 73q15 28 15 72v71zM680 279q-3 166 -147 166q-142 0 -150 -166h297zM382 233q2 -199 150 -199q111 0 144 117l61 -9q-56 -152 -200 -152q-64 0 -109 24q-38 21 -68 67q-99 -91 -207 -91
q-153 0 -153 130q0 31 11 56q31 71 173 91q83 11 142 30l-1 43q-3 105 -118 105q-114 0 -138 -104l-59 9q11 58 38 87q53 56 165 56q118 0 158 -74q61 74 160 74q95 0 152 -67t57 -179v-14h-358z" />
    <glyph glyph-name="ccedilla" unicode="&#xe7;" 
d="M192 -9q-89 6 -141 73q-51 68 -51 178q0 251 220 251q93 0 146 -46q44 -39 60 -101l-60 -9q-32 109 -149 109q-73 0 -115 -54q-43 -53 -43 -144q0 -98 43 -156q44 -58 118 -58q109 0 157 130l56 -8q-39 -158 -202 -166h-2l-6 -29q82 -1 82 -63q0 -78 -138 -78
q-11 0 -34 3v39q16 -2 32 -2q88 0 88 41q0 32 -59 32h-11z" />
    <glyph glyph-name="egrave" unicode="&#xe8;" 
d="M370 281q-14 167 -152 167t-157 -167h309zM60 234q2 -199 162 -199q107 0 148 117l55 -9q-53 -153 -206 -153q-219 0 -219 251q0 118 59 185q58 67 160 67q210 0 212 -259h-371zM290 560h-46l-102 120h91z" />
    <glyph glyph-name="eacute" unicode="&#xe9;" 
d="M370 281q-14 167 -152 167t-157 -167h309zM60 234q2 -199 162 -199q107 0 148 117l55 -9q-53 -153 -206 -153q-219 0 -219 251q0 118 59 185q58 67 160 67q210 0 212 -259h-371zM290 680l-102 -120h-46l57 120h91z" />
    <glyph glyph-name="ecircumflex" unicode="&#xea;" 
d="M370 281q-14 167 -152 167t-157 -167h309zM60 234q2 -199 162 -199q107 0 148 117l55 -9q-53 -153 -206 -153q-219 0 -219 251q0 118 59 185q58 67 160 67q210 0 212 -259h-371zM253 680l89 -120h-62l-64 83l-62 -83h-64l89 120h74z" />
    <glyph glyph-name="edieresis" unicode="&#xeb;" 
d="M370 281q-14 167 -152 167t-157 -167h309zM60 234q2 -199 162 -199q107 0 148 117l55 -9q-53 -153 -206 -153q-219 0 -219 251q0 118 59 185q58 67 160 67q210 0 212 -259h-371zM314 639v-79h-56v79h56zM174 639v-79h-56v79h56z" />
    <glyph glyph-name="igrave" unicode="&#xec;" horiz-adv-x="206" 
d="M102 482v-482h-56v482h56zM148 549h-46l-102 120h91z" />
    <glyph glyph-name="iacute" unicode="&#xed;" horiz-adv-x="206" 
d="M102 482v-482h-56v482h56zM148 669l-102 -120h-46l57 120h91z" />
    <glyph glyph-name="icircumflex" unicode="&#xee;" horiz-adv-x="206" 
d="M154 482v-482h-56v482h56zM163 669l89 -120h-62l-64 83l-62 -83h-64l89 120h74z" />
    <glyph glyph-name="idieresis" unicode="&#xef;" horiz-adv-x="206" 
d="M126 482v-482h-56v482h56zM196 628v-79h-56v79h56zM56 628v-79h-56v79h56z" />
    <glyph glyph-name="ntilde" unicode="&#xf1;" 
d="M57 482v-71q63 82 155 82q108 0 146 -78q18 -37 18 -100v-315h-57v299q0 145 -112 145q-53 0 -94 -35q-42 -36 -50 -89q-6 -31 -6 -111v-209h-57v482h57zM324 645q-6 -85 -64 -85q-21 0 -77 22q-43 15 -59 15q-28 0 -32 -37h-40q5 86 60 86q15 0 75 -18l44 -14
q12 -4 19 -4q26 0 31 35h43z" />
    <glyph glyph-name="ograve" unicode="&#xf2;" 
d="M218 447q-158 0 -158 -205q0 -95 43 -151q43 -57 115 -57q70 0 113 55q42 56 42 148q0 210 -155 210zM215 -10q-98 0 -157 67q-58 67 -58 181q0 255 216 255q85 0 140 -49q76 -67 76 -204q0 -250 -217 -250zM290 560h-46l-102 120h91z" />
    <glyph glyph-name="oacute" unicode="&#xf3;" 
d="M218 447q-158 0 -158 -205q0 -95 43 -151q43 -57 115 -57q70 0 113 55q42 56 42 148q0 210 -155 210zM215 -10q-98 0 -157 67q-58 67 -58 181q0 255 216 255q85 0 140 -49q76 -67 76 -204q0 -250 -217 -250zM290 680l-102 -120h-46l57 120h91z" />
    <glyph glyph-name="ocircumflex" unicode="&#xf4;" 
d="M218 447q-158 0 -158 -205q0 -95 43 -151q43 -57 115 -57q70 0 113 55q42 56 42 148q0 210 -155 210zM215 -10q-98 0 -157 67q-58 67 -58 181q0 255 216 255q85 0 140 -49q76 -67 76 -204q0 -250 -217 -250zM253 680l89 -120h-62l-64 83l-62 -83h-64l89 120h74z" />
    <glyph glyph-name="otilde" unicode="&#xf5;" 
d="M218 447q-158 0 -158 -205q0 -95 43 -151q43 -57 115 -57q70 0 113 55q42 56 42 148q0 210 -155 210zM215 -10q-98 0 -157 67q-58 67 -58 181q0 255 216 255q85 0 140 -49q76 -67 76 -204q0 -250 -217 -250zM352 645q-6 -85 -64 -85q-21 0 -77 22q-43 15 -59 15
q-28 0 -32 -37h-40q5 86 60 86q15 0 75 -18l44 -14q12 -4 19 -4q26 0 31 35h43z" />
    <glyph glyph-name="odieresis" unicode="&#xf6;" 
d="M218 447q-158 0 -158 -205q0 -95 43 -151q43 -57 115 -57q70 0 113 55q42 56 42 148q0 210 -155 210zM215 -10q-98 0 -157 67q-58 67 -58 181q0 255 216 255q85 0 140 -49q76 -67 76 -204q0 -250 -217 -250zM314 639v-79h-56v79h56zM174 639v-79h-56v79h56z" />
    <glyph glyph-name="divide" unicode="&#xf7;" horiz-adv-x="500" 
d="M478 365v-47h-478v47h478zM281 152q0 -43 -43 -43q-42 0 -42 43t42 43q43 0 43 -43zM281 532q0 -43 -43 -43q-42 0 -42 43q0 42 42 42q43 0 43 -42z" />
    <glyph glyph-name="oslash" unicode="&#xf8;" 
d="M319 405q-39 42 -102 42q-73 0 -115 -55q-43 -55 -43 -149q0 -85 34 -138zM117 75q39 -41 101 -41q70 0 112 55q42 56 42 148q0 80 -29 135zM379 419q52 -59 52 -175q0 -254 -217 -254q-80 0 -130 42l-49 -63l-30 21l53 69q-58 69 -58 178q0 256 216 256q80 0 135 -45
l46 60l30 -26z" />
    <glyph glyph-name="ugrave" unicode="&#xf9;" 
d="M319 0v71q-64 -81 -155 -81q-108 0 -146 77q-18 35 -18 100v315h57v-299q0 -145 112 -145q52 0 94 35q41 35 50 88q6 38 6 112v209h57v-482h-57zM262 549h-46l-102 120h91z" />
    <glyph glyph-name="uacute" unicode="&#xfa;" 
d="M319 0v71q-64 -81 -155 -81q-108 0 -146 77q-18 35 -18 100v315h57v-299q0 -145 112 -145q52 0 94 35q41 35 50 88q6 38 6 112v209h57v-482h-57zM262 669l-102 -120h-46l57 120h91z" />
    <glyph glyph-name="ucircumflex" unicode="&#xfb;" 
d="M319 0v71q-64 -81 -155 -81q-108 0 -146 77q-18 35 -18 100v315h57v-299q0 -145 112 -145q52 0 94 35q41 35 50 88q6 38 6 112v209h57v-482h-57zM225 669l89 -120h-62l-64 83l-62 -83h-64l89 120h74z" />
    <glyph glyph-name="udieresis" unicode="&#xfc;" 
d="M319 0v71q-64 -81 -155 -81q-108 0 -146 77q-18 35 -18 100v315h57v-299q0 -145 112 -145q52 0 94 35q41 35 50 88q6 38 6 112v209h57v-482h-57zM286 628v-79h-56v79h56zM146 628v-79h-56v79h56z" />
    <glyph glyph-name="ydieresis" unicode="&#xff;" horiz-adv-x="465" 
d="M62 482l158 -417l166 417h55l-228 -578q-39 -99 -112 -99q-18 0 -54 9l-7 56q36 -8 52 -8q44 0 64 53l34 85l-190 482h62zM318 628v-79h-56v79h56zM178 628v-79h-56v79h56z" />
    <glyph glyph-name="dotlessi" unicode="&#x131;" horiz-adv-x="206" 
d="M56 482v-482h-56v482h56z" />
    <glyph glyph-name="OE" unicode="&#x152;" horiz-adv-x="931" 
d="M455 401q0 223 -180 223q-208 0 -208 -285q0 -168 74 -245q56 -56 133 -56q181 0 181 237v126zM834 666v-56h-315v-241h292v-55h-292v-259h328v-55h-384v87q-50 -64 -113 -86q-39 -12 -82 -12q-124 0 -196 92t-72 251q0 161 71 254q72 92 196 92q123 0 195 -100v88h372z
" />
    <glyph glyph-name="oe" unicode="&#x153;" horiz-adv-x="879" 
d="M225 444q-167 0 -167 -201q0 -96 44 -153q43 -58 116 -58q157 0 157 204q0 208 -150 208zM733 278q-9 167 -148 167q-142 0 -152 -167h300zM435 231q5 -108 52 -157q38 -41 98 -41q103 0 145 116l58 -8q-19 -59 -45 -88q-55 -63 -158 -63q-70 0 -113 25q-39 23 -67 75
q-26 -50 -68 -74q-48 -27 -113 -27q-90 0 -142 44q-82 70 -82 206q0 118 59 186t162 68q126 0 184 -102q61 102 179 102q146 0 189 -124q17 -46 21 -114l1 -24h-360z" />
    <glyph glyph-name="Ydieresis" unicode="&#x178;" horiz-adv-x="569" 
d="M74 666l203 -320l208 320h72l-251 -379v-287h-63v287l-243 379h74zM376 812v-79h-56v79h56zM236 812v-79h-56v79h56z" />
    <glyph glyph-name="florin" unicode="&#x192;" horiz-adv-x="520" 
d="M383 374h-110l-66 -351q-20 -102 -54 -142t-104 -40q-23 0 -49 5l8 46q20 -3 38 -3q46 0 67 33q21 32 40 129l59 323h-99l7 38h99l19 97q18 94 47 125q37 43 110 43q18 0 60 -5l-9 -47q-28 4 -47 4q-80 0 -102 -118l-18 -99h111z" />
    <glyph glyph-name="circumflex" unicode="&#x2c6;" horiz-adv-x="0" 
d="M163 666l89 -120h-62l-64 83l-62 -83h-64l89 120h74z" />
    <glyph glyph-name="caron" unicode="&#x2c7;" horiz-adv-x="0" 
d="M89 546l-89 120h62l63 -83l63 83h64l-89 -120h-74z" />
    <glyph glyph-name="breve" unicode="&#x2d8;" horiz-adv-x="0" 
d="M49 657q6 -63 79 -63q64 0 77 63h47q-13 -107 -123 -107q-113 0 -129 107h49z" />
    <glyph glyph-name="dotaccent" unicode="&#x2d9;" horiz-adv-x="0" 
 />
    <glyph glyph-name="ring" unicode="&#x2da;" horiz-adv-x="0" 
d="M81 657q-52 0 -52 -52q0 -51 52 -51q53 0 53 51q0 52 -53 52zM81 525q-81 0 -81 81q0 82 81 82t81 -82q0 -81 -81 -81z" />
    <glyph glyph-name="ogonek" unicode="&#x2db;" horiz-adv-x="0" 
 />
    <glyph glyph-name="tilde" unicode="&#x2dc;" horiz-adv-x="0" 
d="M272 645q-6 -85 -64 -85q-21 0 -77 22q-43 15 -59 15q-28 0 -32 -37h-40q5 86 60 86q15 0 75 -18l44 -14q12 -4 19 -4q26 0 31 35h43z" />
    <glyph glyph-name="hungarumlaut" unicode="&#x2dd;" horiz-adv-x="0" 
 />
    <glyph glyph-name="uni0394" unicode="&#x394;" horiz-adv-x="666" 
d="M586 44l-259 573l-255 -573h514zM0 0l293 666h67l300 -666h-660z" />
    <glyph glyph-name="uni03A9" unicode="&#x3a9;" horiz-adv-x="666" 
d="M0 51h201q-196 109 -196 309q0 137 91 230t225 93q134 -1 225 -93q91 -93 91 -230q0 -200 -196 -309h201v-51h-269v48q92 52 138 111q66 87 66 196q0 117 -73 197q-74 79 -182 79q-111 0 -184 -78q-73 -79 -73 -198q0 -195 205 -307v-48h-270v51z" />
    <glyph glyph-name="pi" unicode="&#x3c0;" horiz-adv-x="558" 
d="M69 471h-69v46h496v-46h-68v-471h-56v471h-246v-471h-57v471z" />
    <glyph glyph-name="endash" unicode="&#x2013;" horiz-adv-x="500" 
d="M478 365v-47h-478v47h478z" />
    <glyph glyph-name="emdash" unicode="&#x2014;" horiz-adv-x="931" 
d="M942 253v-42h-942v42h942z" />
    <glyph glyph-name="quoteleft" unicode="&#x2018;" horiz-adv-x="206" 
d="M1 453v89q-1 83 59 124l23 -34q-42 -28 -42 -90h38v-89h-78z" />
    <glyph glyph-name="quoteright" unicode="&#x2019;" horiz-adv-x="206" 
d="M83 666v-89q0 -84 -60 -124l-23 34q42 28 42 90h-38v89h79z" />
    <glyph glyph-name="quotedblleft" unicode="&#x201c;" horiz-adv-x="362" 
d="M0 453v89q0 84 60 124l23 -34q-42 -28 -42 -90h37v-89h-78zM159 453v89q0 86 59 124l23 -34q-41 -28 -42 -90h38v-89h-78z" />
    <glyph glyph-name="quotedblright" unicode="&#x201d;" horiz-adv-x="362" 
d="M241 666v-89q0 -85 -60 -124l-22 34q41 28 41 90h-37v89h78zM83 666v-89q0 -85 -60 -124l-23 34q42 28 42 90h-37v89h78z" />
    <glyph glyph-name="quotedblbase" unicode="&#x201e;" horiz-adv-x="362" 
d="M241 89v-89q0 -83 -60 -123l-22 34q41 27 41 89h-37v89h78zM83 89v-89q0 -83 -60 -123l-23 34q42 28 42 89h-37v89h78z" />
    <glyph glyph-name="dagger" unicode="&#x2020;" 
d="M246 657v-202h190v-50h-189v-563h-58v563h-189v50h188v202h58z" />
    <glyph glyph-name="daggerdbl" unicode="&#x2021;" 
d="M246 657v-181h190v-51h-189v-352h189v-50h-189v-181h-58v180h-189v50h188v352h-188v52h188v181h58z" />
    <glyph glyph-name="bullet" unicode="&#x2022;" horiz-adv-x="255" 
d="M137 339q-2 -68 -69 -68q-68 0 -68 68t68 68q69 0 69 -68z" />
    <glyph glyph-name="ellipsis" unicode="&#x2026;" horiz-adv-x="931" 
d="M390 88v-88h-79v88h79zM700 88v-88h-79v88h79zM79 88v-88h-79v88h79z" />
    <glyph glyph-name="perthousand" unicode="&#x2030;" horiz-adv-x="0" 
 />
    <glyph glyph-name="guilsinglleft" unicode="&#x2039;" horiz-adv-x="362" 
d="M184 445l-119 -205l119 -208h-48l-136 208l135 205h49z" />
    <glyph glyph-name="guilsinglright" unicode="&#x203a;" horiz-adv-x="362" 
d="M1 32l118 205l-119 208h49l134 -208l-134 -205h-48z" />
    <glyph glyph-name="fraction" unicode="&#x2044;" horiz-adv-x="164" 
d="M447 661l-407 -661h-40l407 661h40z" />
    <glyph glyph-name="trademark" unicode="&#x2122;" horiz-adv-x="846" 
d="M318 628h-135v-361h-46v361h-137v38h318v-38zM766 267h-41v350l-147 -351h-28l-143 350v-350h-43v400h65l134 -318l139 318h64v-399z" />
    <glyph glyph-name="partialdiff" unicode="&#x2202;" horiz-adv-x="500" 
d="M100 339q-49 -53 -49 -128q0 -73 49 -126q49 -52 117 -52q70 0 117 52q48 53 48 130t-45 127q-46 49 -117 49q-70 0 -120 -52zM260 563q-54 43 -120 65q-28 10 -74 15l14 32q63 -6 104 -24q101 -43 165 -135q50 -75 72 -170q12 -49 12 -101q0 -115 -60 -185
q-60 -71 -158 -71q-89 0 -152 65t-63 158t63 159q63 65 152 65q79 0 152 -65q-21 123 -107 192z" />
    <glyph glyph-name="product" unicode="&#x220f;" horiz-adv-x="666" 
d="M658 750v-39h-84v-921h84v-40h-224v39h90v921h-389v-920h88v-40h-223v39h85v921h-85v40h658z" />
    <glyph glyph-name="radical" unicode="&#x221a;" horiz-adv-x="666" 
d="M598 743h-144l-279 -757l-106 326h-69v40h100l79 -252l243 682h176v-39z" />
    <glyph glyph-name="infinity" unicode="&#x221e;" horiz-adv-x="666" 
d="M147 441q-103 0 -103 -106q0 -108 103 -108q75 0 157 107q-78 107 -157 107zM520 227q101 0 101 106q0 108 -103 108q-73 0 -157 -107q81 -107 159 -107zM518 487q67 0 108 -41q41 -42 41 -110t-41 -111t-107 -43q-100 0 -186 116q-88 -116 -184 -116q-67 0 -108 43
q-41 42 -41 110t41 110t108 42q98 0 184 -116q83 116 185 116z" />
    <glyph glyph-name="integral" unicode="&#x222b;" horiz-adv-x="500" 
d="M276 618q1 7 1 12v10q0 80 -44 80t-45 -70v-778q0 -122 -91 -122q-93 0 -97 144h48v-36q0 -77 47 -77t47 79v760q1 130 90 130q79 0 90 -121v-11h-46z" />
    <glyph glyph-name="approxequal" unicode="&#x2248;" horiz-adv-x="500" 
d="M487 317q-65 -117 -131 -117q-27 0 -115 39q-58 27 -76 34q-18 6 -33 6q-48 0 -102 -92l-30 26q68 112 130 112q30 0 128 -44q46 -22 66 -29q18 -7 29 -7q52 0 103 97zM487 482q-65 -117 -131 -117q-28 0 -115 40q-57 26 -76 33q-18 6 -33 6q-47 0 -102 -92l-30 26
q68 112 130 112q20 0 43 -8t85 -36q80 -36 95 -36q52 0 103 97z" />
    <glyph glyph-name="notequal" unicode="&#x2260;" horiz-adv-x="500" 
d="M330 557l44 -15l-53 -106h166v-45h-188l-54 -110h242v-46h-265l-68 -136l-45 15l61 122h-169v45h192l54 109h-247v46h270z" />
    <glyph glyph-name="lessequal" unicode="&#x2264;" horiz-adv-x="500" 
d="M478 45h-478v52h478v-52zM478 539l-419 -180l419 -186v-50l-478 210v51l478 205v-50z" />
    <glyph glyph-name="greaterequal" unicode="&#x2265;" horiz-adv-x="500" 
d="M478 45h-478v52h478v-52zM0 173l418 180l-418 186v50l478 -210v-51l-478 -205v50z" />
    <glyph glyph-name="lozenge" unicode="&#x25ca;" horiz-adv-x="666" 
d="M250 610l-195 -276l195 -274l197 274zM250 681l252 -347l-252 -348l-250 348z" />
    <glyph glyph-name="uniF8FF" unicode="&#xf8ff;" horiz-adv-x="782" 
d="M510 317q0 -107 100 -149q-80 -194 -169 -194q-20 0 -41 9l-41 17q-4 1 -12 1q-9 1 -20 1q-16 0 -32 -1q-15 -1 -20 -3l-43 -17q-19 -9 -38 -9q-57 0 -110 81q-84 124 -84 253q0 97 52 158t135 61q34 0 77 -17q34 -13 47 -13q14 0 44 10q58 22 91 22q93 0 145 -71
q-81 -61 -81 -139zM448 681q0 -66 -44 -114q-45 -49 -105 -49q3 154 149 173v-10z" />
    <glyph glyph-name="uniFB01" unicode="&#xfb01;" horiz-adv-x="465" 
d="M376 666v-85h-56v85h56zM376 482v-482h-56v482h56zM78 482v51q0 145 117 145q23 0 71 -12l-10 -45q-33 4 -47 4q-75 0 -75 -100v-42h101v-42h-101v-441h-56v440h-78v42h78z" />
    <glyph glyph-name="uniFB02" unicode="&#xfb02;" horiz-adv-x="465" 
d="M376 666v-666h-56v666h56zM78 482v51q0 145 117 145q23 0 71 -12l-10 -45q-33 4 -47 4q-75 0 -75 -100v-42h101v-42h-101v-441h-56v440h-78v42h78z" />
    <glyph glyph-name="glyph180" horiz-adv-x="500" 
d="M139 576h50q56 -1 56 32t-52 33h-54v-65zM199 666q76 0 76 -56q0 -25 -25 -44l16 -23q4 -9 6 -30l3 -31q0 -3 2 -9l2 -6h-30q-5 10 -6 34q-1 32 -11 41q-9 8 -43 8h-50v-83h-31v199h91zM77 678q-47 -46 -47 -113q0 -66 47 -113t114 -47q66 0 113 47t47 113q0 67 -47 113
q-47 47 -113 47q-67 0 -114 -47zM325 699q56 -56 56 -134t-56 -133q-55 -55 -134 -55t-135 55t-56 133t56 134q56 55 135 55t134 -55z" />
    <glyph glyph-name="glyph190" horiz-adv-x="666" 
d="M570 531h-42l-6 179h-463l257 -439l-260 -481h477l3 178h43v-218h-579v44l259 479l-259 434v43h570v-219z" />
    <glyph glyph-name="glyph207" horiz-adv-x="258" 
d="M84 88v-88q0 -80 -60 -124l-24 34q40 31 41 90h-36v88h79z" />
    </font>
</defs>
</svg>
