<?xml version="1.0" standalone="no"?>
<!DOCTYPE svg PUBLIC "-//W3C//DTD SVG 1.1//EN" "http://www.w3.org/Graphics/SVG/1.1/DTD/svg11.dtd" >
<svg xmlns="http://www.w3.org/2000/svg" xmlns:xlink="http://www.w3.org/1999/xlink" version="1.1">
<metadata>
Created by FontForge 20170731 at Mon Dec 26 13:15:03 2005
 By Aleksey,,,
(C)1992 The Font Company Inc., ALL Rights Reserved
</metadata>
<defs>
<font id="Arial-MdmItl" horiz-adv-x="514" >
  <font-face 
    font-family="Arial"
    font-weight="500"
    font-style="italic"
    font-stretch="normal"
    units-per-em="1000"
    panose-1="0 0 0 0 0 0 0 0 0 0"
    ascent="800"
    descent="-200"
    x-height="482"
    cap-height="666"
    bbox="0 -250 1012 876"
    underline-thickness="20"
    underline-position="-150"
    slope="12"
    unicode-range="U+0020-FB02"
  />
<missing-glyph horiz-adv-x="0" 
 />
    <glyph glyph-name=".notdef" horiz-adv-x="0" 
 />
    <glyph glyph-name=".null" horiz-adv-x="0" 
 />
    <glyph glyph-name="nonmarkingreturn" horiz-adv-x="333" 
 />
    <glyph glyph-name="space" unicode=" " horiz-adv-x="233" 
 />
    <glyph glyph-name="exclam" unicode="!" horiz-adv-x="281" 
d="M0 0l22 108h110l-23 -108h-109zM56 168l46 352l30 146h117l-33 -157l-99 -341h-61z" />
    <glyph glyph-name="quotedbl" unicode="&#x22;" horiz-adv-x="393" 
d="M139 392l56 274h82l-90 -274h-48zM0 392l57 274h81l-90 -274h-48z" />
    <glyph glyph-name="numbersign" unicode="#" horiz-adv-x="566" 
d="M245 402l-53 -125h126l52 125h-125zM460 219h-108l-92 -219h-59l91 219h-125l-93 -219h-58l92 219h-108l16 58h117l52 125h-108l17 58h116l87 206h59l-87 -206h126l86 206h60l-87 -206h99l-16 -58h-107l-53 -125h100z" />
    <glyph glyph-name="dollar" unicode="$" 
d="M232 70q50 0 87 34q36 34 36 81q0 59 -83 99l-45 -214h5zM281 597q-108 0 -108 -99q0 -58 69 -95l41 194h-2zM157 -5q-149 36 -157 198l98 5q8 -90 76 -120l48 228l-2 1q-142 61 -142 182q0 77 60 133q60 55 143 55h8q5 0 10 -1l8 38h55l-10 -44q124 -31 139 -164l-95 -5
q-9 64 -61 86l-43 -206l4 -1q152 -63 152 -186q0 -88 -64 -147q-65 -59 -160 -59l-14 1l-17 -79h-54z" />
    <glyph glyph-name="percent" unicode="%" horiz-adv-x="824" 
d="M128 389q37 0 63 50q27 49 27 117q0 53 -47 53q-36 0 -62 -50q-27 -49 -27 -116q0 -54 46 -54zM539 39q37 0 64 49q27 50 27 117q0 54 -48 54q-35 0 -62 -50q-26 -50 -26 -117q0 -53 45 -53zM37 595q48 80 138 80q125 0 125 -131q0 -108 -63 -176q-41 -44 -112 -44
q-125 0 -125 134q0 76 37 137zM448 245q48 79 138 79q126 0 126 -130q0 -108 -63 -176q-43 -43 -113 -43q-125 0 -125 131q0 78 37 139zM36 -26l553 704h89l-552 -704h-90z" />
    <glyph glyph-name="ampersand" unicode="&#x26;" horiz-adv-x="650" 
d="M371 549q0 54 -56 54q-72 0 -72 -77q0 -38 24 -86q104 53 104 109zM105 186q0 -47 31 -79q31 -31 77 -31q67 0 127 54q-74 93 -127 189q-108 -53 -108 -133zM471 -11q-46 34 -72 68q-86 -70 -188 -70q-95 1 -153 53t-58 137q0 108 101 178q29 20 72 41l-3 6
q-29 63 -29 109q0 72 50 120q50 47 126 47q64 0 107 -37q42 -36 42 -91q0 -103 -161 -184l7 -13q55 -96 101 -151q32 37 60 85l82 -46q-30 -61 -78 -114q29 -34 66 -71l6 -6l-72 -65z" />
    <glyph glyph-name="quotesingle" unicode="'" horiz-adv-x="196" 
d="M0 392l57 274h81l-90 -274h-48z" />
    <glyph glyph-name="parenleft" unicode="(" horiz-adv-x="310" 
d="M72 -195q-24 54 -40 107q-32 113 -32 226q0 165 88 328q49 91 149 204l6 8h81q-111 -122 -172 -282q-54 -139 -54 -297q0 -137 49 -294h-75z" />
    <glyph glyph-name="parenright" unicode=")" horiz-adv-x="310" 
d="M251 678q72 -161 72 -333q0 -167 -88 -330q-49 -88 -149 -203l-6 -7h-80q114 129 171 281q54 141 54 285q0 152 -49 307h75z" />
    <glyph glyph-name="asterisk" unicode="*" horiz-adv-x="359" 
d="M24 606l9 -4q66 -28 97 -44l-11 117h74l-1 -10q-3 -38 -9 -96l-2 -10q37 18 103 43l7 3l23 -72q-64 -17 -114 -25q2 -4 5 -5l3 -2l71 -81l-60 -44q-1 4 -3 6l-2 2q-2 2 -10 15l-48 78l-4 -8q-33 -58 -57 -94l-62 44l60 68q2 1 2 2l19 19l-114 26z" />
    <glyph glyph-name="plus" unicode="+" horiz-adv-x="500" 
d="M224 374l52 195h66l-53 -195h208l-17 -66h-207l-53 -195h-65l52 195h-207l16 66h208z" />
    <glyph glyph-name="comma" unicode="," horiz-adv-x="261" 
d="M52 108h111l-19 -92q-31 -143 -144 -155l10 48q57 14 74 91h-55z" />
    <glyph glyph-name="hyphen" unicode="-" horiz-adv-x="310" 
d="M22 292h252l-21 -103h-253z" />
    <glyph glyph-name="period" unicode="." horiz-adv-x="261" 
d="M23 108h110l-23 -108h-110z" />
    <glyph glyph-name="slash" unicode="/" horiz-adv-x="262" 
d="M0 -195l356 873h81l-356 -873h-81z" />
    <glyph glyph-name="zero" unicode="0" 
d="M185 72q95 0 144 181q36 130 36 225q0 107 -83 107q-82 0 -127 -129q-53 -148 -53 -265q0 -119 83 -119zM83 534q84 135 202 135q82 0 131 -61q50 -61 50 -161q0 -177 -83 -323q-75 -135 -200 -135q-82 0 -132 61q-51 61 -51 159q0 191 83 325z" />
    <glyph glyph-name="one" unicode="1" 
d="M90 0l101 484q-77 -57 -191 -83l20 94q185 78 253 175h63l-140 -670h-106z" />
    <glyph glyph-name="two" unicode="2" 
d="M0 0q10 59 37 106q36 61 149 160q56 49 80 71q21 19 44 43q14 14 29 34q30 42 30 79q0 93 -93 93q-87 0 -111 -124l-103 16q29 191 214 191q86 0 141 -50t55 -128q-1 -103 -125 -211l-68 -59l-67 -63q-39 -36 -54 -56l-3 -6h266l-20 -96h-401z" />
    <glyph glyph-name="three" unicode="3" 
d="M101 186q14 -113 103 -113q53 0 91 37q37 37 37 90q0 101 -105 101q-12 0 -25 -2l18 88l30 -2q49 0 83 31q33 31 33 78q0 91 -88 91q-84 0 -106 -108l-99 20q46 172 214 172q80 0 132 -49q52 -48 52 -124q0 -107 -112 -156q80 -45 80 -131q0 -91 -69 -155
q-69 -65 -165 -65q-86 0 -142 50t-63 135z" />
    <glyph glyph-name="four" unicode="4" 
d="M286 244l51 245l-214 -245h163zM235 0l32 153h-267l19 95l368 418h88l-88 -422h88l-19 -91h-87l-33 -153h-101z" />
    <glyph glyph-name="five" unicode="5" 
d="M105 200q-1 -5 -1 -11v-9q0 -45 27 -76t65 -31q60 0 104 56q44 55 44 131q0 109 -99 109q-64 0 -114 -59l-88 6l101 341h330l-20 -96h-238l-42 -138q49 30 101 30q78 0 126 -53q47 -52 47 -137q0 -115 -74 -194q-74 -80 -180 -80q-84 0 -139 53q-55 54 -55 136v5q0 4 1 7
z" />
    <glyph glyph-name="six" unicode="6" 
d="M129 106q27 -34 67 -34q50 0 89 54q38 53 38 123q0 119 -92 119q-54 0 -91 -52q-38 -52 -38 -126q0 -50 27 -84zM358 496q-10 87 -76 87q-103 0 -149 -182q59 43 117 43q77 0 126 -54q48 -54 48 -140q0 -109 -67 -185t-162 -76q-91 0 -143 65q-52 64 -52 178
q0 185 83 311t204 126q153 0 169 -165z" />
    <glyph glyph-name="seven" unicode="7" 
d="M20 0q21 125 103 289q80 161 187 272h-310l20 96h432l-17 -84q-98 -82 -188 -248q-89 -165 -123 -325h-104z" />
    <glyph glyph-name="eight" unicode="8" 
d="M254 398q46 0 77 30q31 31 31 75q0 84 -87 84q-47 0 -78 -31t-31 -77q0 -81 88 -81zM200 71q52 0 89 45t37 110q0 93 -94 93q-55 0 -91 -44q-36 -45 -36 -112q0 -92 95 -92zM429 216q0 -96 -68 -161q-68 -66 -167 -66q-86 0 -140 51q-54 50 -54 132q0 96 68 156
q27 23 72 38q-74 44 -72 120q0 78 59 131q59 52 147 52q83 0 135 -45q52 -46 52 -117q0 -104 -112 -150q80 -51 80 -141z" />
    <glyph glyph-name="nine" unicode="9" 
d="M227 288q51 0 90 53q38 52 38 122q0 122 -95 122q-52 0 -89 -53t-37 -127q0 -117 93 -117zM99 161q10 -88 76 -88q101 0 148 183q-60 -43 -118 -43q-75 0 -124 55t-49 140q0 109 67 185t164 76q193 0 193 -244q0 -185 -83 -311q-82 -125 -204 -125q-158 0 -169 164z" />
    <glyph glyph-name="colon" unicode=":" horiz-adv-x="281" 
d="M101 482h110l-23 -108h-110zM23 108h109l-22 -108h-110z" />
    <glyph glyph-name="semicolon" unicode=";" horiz-adv-x="281" 
d="M130 482h109l-22 -108h-110zM51 108h112l-19 -92q-31 -143 -144 -155l9 48q58 14 75 91h-55z" />
    <glyph glyph-name="less" unicode="&#x3c;" horiz-adv-x="500" 
d="M537 509l-443 -171l351 -169l-18 -70l-427 202l19 72l536 207z" />
    <glyph glyph-name="equal" unicode="=" horiz-adv-x="500" 
d="M498 299l-17 -65h-481l17 65h481zM538 448l-17 -65h-481l17 65h481z" />
    <glyph glyph-name="greater" unicode="&#x3e;" horiz-adv-x="500" 
d="M18 169l443 172l-351 168l18 71l427 -202l-19 -72l-536 -207z" />
    <glyph glyph-name="question" unicode="?" horiz-adv-x="543" 
d="M81 166q8 71 54 128q21 27 48 51l44 37q103 86 103 136q0 80 -99 80q-108 0 -131 -130l-100 17q41 193 232 193q85 0 142 -47q57 -48 57 -119q0 -58 -44 -108q-30 -33 -106 -96q-61 -49 -78 -74q-17 -24 -25 -68h-97zM42 0l22 108h110l-23 -108h-109z" />
    <glyph glyph-name="at" unicode="@" horiz-adv-x="698" 
d="M300 199q70 3 114 77q37 61 37 107q0 62 -64 62q-85 0 -136 -92q-25 -43 -25 -84q0 -70 70 -70h4zM590 132q-72 -67 -123 -95q-84 -47 -190 -47q-127 0 -202 67q-75 66 -75 180q0 172 140 306t319 134q112 0 182 -58t70 -151q0 -154 -127 -258q-92 -76 -173 -76
q-39 0 -39 33q0 8 5 23q-55 -52 -118 -52q-107 0 -107 106q0 112 93 200q68 65 153 65q82 0 95 -70l27 58h58l-118 -263q-10 -22 -12 -28t-2 -11q0 -12 13 -12q18 0 57 24q50 30 76 60q72 80 72 179q0 85 -58 136q-59 50 -157 50q-150 0 -269 -117q-120 -116 -120 -261
q0 -100 63 -161q63 -60 168 -60q68 0 136 31q44 20 104 68h59z" />
    <glyph glyph-name="A" unicode="A" horiz-adv-x="650" 
d="M465 259l-23 152q-14 97 -19 151q-12 -27 -28 -57q-17 -34 -35 -66l-99 -180h204zM0 0l376 666h128l109 -666h-106l-29 170h-268l-94 -170h-116z" />
    <glyph glyph-name="B" unicode="B" horiz-adv-x="650" 
d="M314 389q88 0 122 20q51 30 51 87q0 78 -130 78h-125l-39 -185h121zM273 90q65 0 87 4q22 3 48 18q56 31 56 98q0 84 -124 84h-166l-44 -204h143zM0 0l139 666h217q140 0 192 -47q47 -42 47 -112q0 -116 -125 -160q109 -33 109 -136q0 -117 -104 -175q-63 -36 -156 -36
h-319z" />
    <glyph glyph-name="C" unicode="C" horiz-adv-x="669" 
d="M495 455q-24 128 -142 128q-103 0 -173 -91q-70 -90 -70 -223q0 -86 43 -137q44 -51 117 -51q138 0 186 156l112 -17q-83 -231 -303 -231q-265 0 -265 286q0 173 101 288q100 115 251 115q103 0 170 -58q68 -57 79 -155z" />
    <glyph glyph-name="D" unicode="D" horiz-adv-x="669" 
d="M220 90q136 0 193 52q102 91 102 254q0 122 -69 159q-33 19 -114 19h-99l-102 -484h89zM0 0l140 666h191q81 0 112 -6q32 -5 69 -27q49 -27 78 -80q38 -65 38 -162q0 -242 -183 -347q-76 -44 -207 -44h-238z" />
    <glyph glyph-name="E" unicode="E" horiz-adv-x="620" 
d="M0 0l139 666h487l-19 -92h-375l-39 -182h365l-19 -92h-364l-44 -208h402l-19 -92h-514z" />
    <glyph glyph-name="F" unicode="F" horiz-adv-x="572" 
d="M0 0l139 666h449l-19 -92h-337l-40 -188h338l-19 -93h-337l-62 -293h-112z" />
    <glyph glyph-name="G" unicode="G" horiz-adv-x="727" 
d="M316 346h295l-58 -278q-125 -79 -277 -79q-276 0 -276 281q0 174 106 291q107 117 265 117q222 0 265 -209l-107 -11q-30 128 -160 128q-112 0 -186 -88q-73 -89 -73 -224q0 -193 169 -193q88 0 180 50l26 123h-188z" />
    <glyph glyph-name="H" unicode="H" horiz-adv-x="669" 
d="M0 0l140 666h111l-56 -267h305l56 267h111l-139 -666h-111l61 306h-301l-65 -306h-112z" />
    <glyph glyph-name="I" unicode="I" horiz-adv-x="261" 
d="M0 0l139 666h112l-139 -666h-112z" />
    <glyph glyph-name="J" unicode="J" horiz-adv-x="494" 
d="M498 666l-94 -448q-22 -108 -62 -161q-51 -68 -160 -68q-182 0 -182 154q0 27 4 48l104 10q-5 -27 -5 -49q0 -71 81 -71q49 0 71 29q21 28 41 118l91 438h111z" />
    <glyph glyph-name="K" unicode="K" horiz-adv-x="640" 
d="M0 0l139 666h112l-65 -312l332 312h141l-295 -266l224 -400h-125l-180 327l-125 -114l-46 -213h-112z" />
    <glyph glyph-name="L" unicode="L" horiz-adv-x="543" 
d="M0 0l139 666h112l-120 -574h343l-20 -92h-454z" />
    <glyph glyph-name="M" unicode="M" horiz-adv-x="776" 
d="M0 0l139 666h150l50 -479q4 -34 5 -56l15 32l265 503h152l-140 -666h-105l120 515l11 41l-32 -65l-257 -491h-106l-51 520q-3 29 -3 41l-2 -12q-4 -34 -10 -62l-97 -487h-104z" />
    <glyph glyph-name="N" unicode="N" horiz-adv-x="669" 
d="M0 0l140 666h106l145 -340l53 -132l11 -32l16 87l87 417h106l-139 -666h-106l-173 414q-19 44 -25 60q-5 13 -12 35q-2 -30 -14 -84l-89 -425h-106z" />
    <glyph glyph-name="O" unicode="O" horiz-adv-x="727" 
d="M159 135q49 -54 128 -54q98 0 171 94q72 94 72 221q0 83 -49 136q-50 53 -127 53q-100 0 -172 -91q-72 -92 -72 -218q0 -87 49 -141zM60 502q103 176 305 176q124 0 200 -80t76 -210q0 -168 -106 -283q-106 -116 -259 -116q-125 0 -200 80q-76 79 -76 211q0 119 60 222z
" />
    <glyph glyph-name="P" unicode="P" horiz-adv-x="621" 
d="M283 354q106 0 150 24q68 39 68 117q0 47 -28 64q-27 17 -104 17h-136l-47 -222h97zM0 0l139 666h275q85 0 124 -23q75 -44 75 -138q0 -141 -111 -205q-65 -38 -206 -38h-129l-56 -262h-111z" />
    <glyph glyph-name="Q" unicode="Q" horiz-adv-x="727" 
d="M465 183q66 94 66 214q0 81 -49 135q-49 53 -123 53q-103 0 -175 -91q-73 -90 -73 -218q0 -83 48 -139t120 -56q30 0 67 10l6 2q-30 37 -80 59l41 65q56 -26 109 -83q28 26 43 49zM413 15q-66 -26 -129 -26q-129 0 -206 78q-78 78 -78 208q0 172 104 287q104 116 258 116
q127 0 204 -79q76 -80 76 -212q0 -202 -154 -328q33 -38 91 -73l-51 -68q-63 38 -113 98z" />
    <glyph glyph-name="R" unicode="R" horiz-adv-x="669" 
d="M289 372q90 0 122 4q33 4 60 20q62 36 62 102q0 77 -115 77h-186l-43 -203h100zM0 0l139 666h288q102 0 145 -25q70 -41 70 -142q0 -180 -215 -207q70 -58 133 -218q1 -4 2 -5l28 -69h-122l-26 69q-1 2 -1 4q-23 64 -64 138q-11 23 -29 42q-30 33 -95 33h-81l-60 -286
h-112z" />
    <glyph glyph-name="S" unicode="S" horiz-adv-x="621" 
d="M108 223q-1 -4 -1 -8v-5q0 -129 151 -129t151 100q0 34 -26 56q-26 21 -106 56q-114 50 -149 85q-46 43 -46 113q0 85 64 136t171 51q110 0 179 -54t69 -139v-8l-108 -7l1 5q0 112 -143 112q-126 0 -126 -86q0 -33 27 -56t105 -54q116 -48 154 -85q45 -47 45 -113
q0 -91 -73 -147q-73 -57 -189 -57q-172 0 -227 95q-31 51 -31 131z" />
    <glyph glyph-name="T" unicode="T" horiz-adv-x="572" 
d="M88 0l119 574h-207l19 92h525l-19 -92h-205l-121 -574h-111z" />
    <glyph glyph-name="U" unicode="U" horiz-adv-x="669" 
d="M206 666l-81 -387l-15 -73q-1 -10 -1 -18q0 -107 132 -107q91 0 134 59q33 46 57 161l76 365h112l-79 -378q-29 -137 -77 -199q-78 -100 -224 -100q-110 0 -175 52q-65 53 -65 142q0 33 8 71l86 412h112z" />
    <glyph glyph-name="V" unicode="V" horiz-adv-x="620" 
d="M610 666l-366 -666h-119l-125 666h110l86 -477q7 -39 10 -63q15 32 36 72l256 468h112z" />
    <glyph glyph-name="W" unicode="W" horiz-adv-x="883" 
d="M33 0l-33 666h111l13 -452v-55l42 85l216 422h119l21 -509l8 22l33 71l204 416h111l-331 -666h-115l-23 510q-4 -10 -12 -27q-6 -14 -12 -25l-237 -458h-115z" />
    <glyph glyph-name="X" unicode="X" horiz-adv-x="621" 
d="M0 0l306 337l-178 329h119l114 -210l15 -30q0 -2 6 -13q34 46 99 116l127 137h142l-314 -347l174 -319h-124l-99 189l-26 54q-15 -23 -54 -67l-162 -176h-145z" />
    <glyph glyph-name="Y" unicode="Y" horiz-adv-x="620" 
d="M141 0l54 258l-195 408h119l91 -191q30 -65 52 -119q28 53 96 143l128 167h131l-313 -417l-52 -249h-111z" />
    <glyph glyph-name="Z" unicode="Z" horiz-adv-x="572" 
d="M15 84l358 423l57 70q-21 -3 -70 -3h-265l19 92h470l-13 -86l-417 -490q50 2 131 2h240l-20 -92h-505z" />
    <glyph glyph-name="bracketleft" unicode="[" horiz-adv-x="281" 
d="M200 -182h-200l175 848h202l-17 -81h-99l-145 -688h101z" />
    <glyph glyph-name="backslash" unicode="\" horiz-adv-x="262" 
d="M355 -195l-355 873h80l356 -873h-81z" />
    <glyph glyph-name="bracketright" unicode="]" horiz-adv-x="281" 
d="M177 666h202l-178 -848h-201l17 81h100l144 688h-100z" />
    <glyph glyph-name="asciicircum" unicode="^" horiz-adv-x="500" 
d="M0 378l269 288h76l115 -288h-73l-96 230l-218 -230h-73z" />
    <glyph glyph-name="underscore" unicode="_" horiz-adv-x="500" 
d="M499 -150h-499l20 75h499z" />
    <glyph glyph-name="grave" unicode="`" horiz-adv-x="0" 
d="M91 543l-91 130h111l55 -130h-75z" />
    <glyph glyph-name="a" unicode="a" 
d="M326 235q-19 -8 -56 -11q-99 -10 -134 -28q-35 -19 -35 -61q0 -67 76 -67q67 0 109 53q24 32 38 102zM308 0q-8 27 -10 57q-71 -68 -155 -68q-63 0 -103 39t-40 100q0 80 57 118q47 33 157 41q96 6 127 18q9 34 9 52q0 57 -87 57q-86 0 -110 -73l-104 9q51 143 222 143
q82 0 131 -35q50 -34 50 -92q0 -29 -12 -89l-13 -60q-25 -116 -25 -155q0 -24 10 -62h-104z" />
    <glyph glyph-name="b" unicode="b" horiz-adv-x="543" 
d="M245 70q60 0 104 67q43 67 43 159q0 51 -27 85q-26 33 -67 33q-60 0 -105 -65q-46 -66 -46 -153q0 -126 98 -126zM0 0l139 666h105l-48 -231q68 58 136 58q75 0 119 -54q44 -53 44 -145q0 -126 -70 -215q-70 -90 -168 -90q-102 0 -145 96l-18 -85h-94z" />
    <glyph glyph-name="c" unicode="c" horiz-adv-x="494" 
d="M343 323q-3 89 -87 89q-65 0 -108 -67q-43 -68 -43 -170q0 -105 85 -105q84 0 120 108l103 -14q-60 -175 -226 -175q-86 0 -136 53q-51 53 -51 142q0 135 74 222t188 87q81 0 131 -44q51 -44 52 -117z" />
    <glyph glyph-name="d" unicode="d" horiz-adv-x="543" 
d="M198 69q62 0 106 66q45 67 45 159q0 118 -100 118q-59 0 -103 -66q-43 -66 -43 -157q0 -120 95 -120zM311 61q-65 -72 -147 -72q-164 0 -164 200q0 125 70 215q69 89 167 89q94 0 141 -82l53 255h105l-139 -666h-98z" />
    <glyph glyph-name="e" unicode="e" 
d="M358 282v18q0 116 -101 116q-105 0 -139 -134h240zM105 211q-1 -7 -1 -14v-11q0 -50 29 -84t71 -34q84 0 126 88l98 -13q-25 -69 -87 -111q-62 -43 -135 -43q-93 0 -149 58q-57 58 -57 155q0 122 76 207q76 84 186 84q193 0 193 -207q0 -31 -8 -75h-342z" />
    <glyph glyph-name="f" unicode="f" horiz-adv-x="281" 
d="M0 0l84 404h-73l17 78h73l12 60q14 66 33 93q32 43 105 43q44 0 106 -16l4 -1l-19 -83q-46 14 -72 14q-42 0 -55 -66l-9 -44h92l-17 -78h-92l-84 -404h-105z" />
    <glyph glyph-name="g" unicode="g" horiz-adv-x="543" 
d="M224 80q62 0 107 63q46 64 46 150q0 51 -30 86t-73 35q-57 0 -101 -64q-45 -64 -45 -146q0 -124 96 -124zM111 -48v-7q-2 -60 76 -60q74 0 101 38q19 28 35 105l7 31q-63 -60 -140 -60q-75 0 -120 55q-46 56 -45 147q0 120 70 206q69 86 165 86q100 0 150 -93l17 82h98
l-91 -436q-25 -120 -63 -170q-24 -30 -57 -46q-49 -24 -124 -24q-190 0 -190 132q0 12 2 27z" />
    <glyph glyph-name="h" unicode="h" horiz-adv-x="543" 
d="M0 0l140 666h105l-52 -247q83 74 164 74q128 0 128 -114q0 -30 -14 -96l-59 -283h-105l67 319q6 29 6 45q0 50 -60 50q-101 0 -144 -108q-15 -37 -29 -107l-42 -199h-105z" />
    <glyph glyph-name="i" unicode="i" horiz-adv-x="232" 
d="M139 666h105l-22 -105h-105zM0 0l101 482h105l-101 -482h-105z" />
    <glyph glyph-name="j" unicode="j" horiz-adv-x="232" 
d="M278 666h105l-22 -105h-104zM17 -93q30 -8 51 -8q46 0 66 85l12 52l94 446h105l-102 -485l-7 -29q-18 -80 -46 -117q-34 -45 -103 -45q-41 0 -87 13z" />
    <glyph glyph-name="k" unicode="k" horiz-adv-x="494" 
d="M0 0l139 666h105l-80 -382l207 198h138l-201 -178l115 -304h-109l-82 236l-95 -83l-32 -153h-105z" />
    <glyph glyph-name="l" unicode="l" horiz-adv-x="232" 
d="M0 0l140 666h105l-139 -666h-106z" />
    <glyph glyph-name="m" unicode="m" horiz-adv-x="795" 
d="M0 0l101 482h102l-15 -70q75 81 158 81q97 0 116 -88q67 88 170 88q118 0 118 -112q0 -22 -5 -49l-7 -29l-63 -303h-105l69 330q5 30 5 41q0 43 -51 43q-80 0 -122 -80q-19 -39 -34 -107l-47 -227h-104l68 336q4 17 4 32q0 46 -50 46q-81 0 -123 -86q-19 -37 -33 -103
l-47 -225h-105z" />
    <glyph glyph-name="n" unicode="n" horiz-adv-x="543" 
d="M0 0l101 482h98l-16 -74q88 85 175 85q127 0 127 -116q0 -31 -13 -94l-60 -283h-105l61 291q11 51 11 73q0 50 -59 50q-89 0 -135 -89q-20 -38 -35 -113l-45 -212h-105z" />
    <glyph glyph-name="o" unicode="o" horiz-adv-x="543" 
d="M213 69q65 0 113 66t48 156q0 122 -108 122q-68 0 -114 -63q-47 -62 -47 -153q0 -128 108 -128zM422 437q56 -56 56 -152q0 -129 -76 -212q-77 -84 -194 -84q-95 0 -152 56q-56 57 -56 152q0 131 75 213q76 83 195 83q96 0 152 -56z" />
    <glyph glyph-name="p" unicode="p" horiz-adv-x="543" 
d="M287 70q59 0 103 68q43 67 43 159q0 118 -96 118q-61 0 -105 -67q-45 -67 -45 -158q0 -120 100 -120zM0 -184l139 666h98l-13 -59q73 70 149 70q74 0 119 -55q44 -55 44 -148q0 -123 -71 -212q-70 -89 -168 -89q-93 0 -139 82l-54 -255h-104z" />
    <glyph glyph-name="q" unicode="q" horiz-adv-x="543" 
d="M129 103q28 -33 69 -33q61 0 105 67q45 67 45 158q0 51 -28 85q-28 33 -71 33q-60 0 -103 -67q-44 -68 -44 -160q0 -50 27 -83zM251 -184l48 231q-66 -58 -136 -58q-74 0 -119 54q-44 54 -44 146q0 127 69 215q70 89 168 89q103 0 146 -93l18 82h94l-139 -666h-105z" />
    <glyph glyph-name="r" unicode="r" horiz-adv-x="329" 
d="M0 0l101 482h96l-20 -96q70 107 144 107q31 0 63 -16l-41 -90q-20 11 -40 11q-78 0 -123 -92q-22 -48 -40 -133l-37 -173h-103z" />
    <glyph glyph-name="s" unicode="s" horiz-adv-x="494" 
d="M103 162q11 -97 111 -97q104 0 104 64q0 23 -20 38q-21 15 -84 39q-78 29 -110 58q-34 31 -34 82q0 67 55 107q54 40 145 40q170 0 189 -140l-99 -13q-13 77 -108 77q-84 0 -84 -55q0 -34 91 -65q104 -37 136 -73q30 -33 30 -79q0 -68 -58 -112t-147 -44q-212 0 -220 161
z" />
    <glyph glyph-name="t" unicode="t" horiz-adv-x="281" 
d="M169 403l-49 -236l-7 -33q-4 -16 -4 -31q0 -29 40 -29q20 0 45 4l-16 -80q-31 -7 -62 -7q-116 0 -116 81q0 23 14 91l50 240h-64l16 79h65l20 100l120 72l-35 -172h80l-17 -79h-80z" />
    <glyph glyph-name="u" unicode="u" horiz-adv-x="543" 
d="M484 482l-100 -482h-97l15 76q-82 -87 -177 -87q-125 0 -125 115q0 28 6 61l67 317h105l-67 -318q-5 -28 -5 -43q0 -53 59 -53q86 0 136 92q18 33 33 104l45 218h105z" />
    <glyph glyph-name="v" unicode="v" horiz-adv-x="494" 
d="M88 0l-88 482h103l56 -364l10 21l52 94l142 249h112l-286 -482h-101z" />
    <glyph glyph-name="w" unicode="w" horiz-adv-x="698" 
d="M55 0l-55 482h97l27 -267q4 -45 6 -88q10 30 28 70l132 285h103l18 -298l1 -60q15 38 39 90l126 268h105l-238 -482h-103l-21 294q-1 8 -1 22l-1 33l-6 -17l-17 -39l-137 -293h-103z" />
    <glyph glyph-name="x" unicode="x" horiz-adv-x="494" 
d="M0 0l216 246l-122 236h113l55 -110q7 -14 22 -49l131 159h128l-213 -247l122 -235h-113l-59 115q-12 24 -18 41l-133 -156h-129z" />
    <glyph glyph-name="y" unicode="y" horiz-adv-x="494" 
d="M8 -97q25 -7 46 -7q49 0 93 79l14 25l-82 482h104l38 -266q9 -62 12 -114q12 31 34 74l169 306h110l-303 -538q-43 -77 -75 -105q-36 -34 -94 -34q-37 0 -74 11z" />
    <glyph glyph-name="z" unicode="z" horiz-adv-x="465" 
d="M15 75l262 293l33 33q-34 -3 -45 -3h-196l17 84h377l-14 -64l-288 -322l-11 -11l50 3h210l-19 -88h-391z" />
    <glyph glyph-name="braceleft" unicode="{" horiz-adv-x="290" 
d="M137 184q0 -26 -9 -56l-49 -185q-4 -16 -4 -28q0 -40 75 -40h7l-16 -58q-14 -1 -27 -1q-114 0 -114 83q0 25 11 64l43 162q8 27 8 48q0 36 -39 46l16 58q60 15 81 94l47 173q37 138 182 138h10q6 0 14 -1l-16 -58q-62 0 -84 -17t-38 -80l-43 -160q-22 -84 -92 -118
q37 -26 37 -64z" />
    <glyph glyph-name="bar" unicode="|" horiz-adv-x="500" 
d="M288 666l-225 -838h-63l224 838h64z" />
    <glyph glyph-name="braceright" unicode="}" horiz-adv-x="290" 
d="M235 314q0 24 9 54l49 187q4 16 4 28q0 40 -81 40l15 58q14 1 27 1q114 0 114 -83q0 -23 -11 -64l-43 -163q-8 -27 -8 -48q0 -35 39 -46l-15 -58q-60 -14 -82 -94l-46 -172q-38 -138 -181 -138q-13 0 -25 1l16 58q62 0 83 17q22 18 38 80l43 159q23 84 93 118
q-38 25 -38 65z" />
    <glyph glyph-name="asciitilde" unicode="~" horiz-adv-x="499" 
d="M517 657q-42 -49 -74 -76q-48 -39 -92 -39q-29 0 -104 37q-51 26 -67 32q-15 6 -29 6q-46 0 -123 -90l-28 39q40 46 69 71q51 43 98 43q32 0 114 -41q41 -21 58 -27q16 -7 27 -7q47 0 122 90z" />
    <glyph glyph-name="uni00A0" unicode="&#xa0;" horiz-adv-x="233" 
 />
    <glyph glyph-name="exclamdown" unicode="&#xa1;" horiz-adv-x="310" 
d="M194 313l-46 -350l-31 -146h-117l33 157l100 339h61zM250 482l-23 -108h-109l22 108h110z" />
    <glyph glyph-name="cent" unicode="&#xa2;" 
d="M261 416l-5 1q-66 0 -110 -69t-44 -172q0 -52 26 -81zM22 -161l71 171q-93 47 -93 179q0 133 75 219t190 86l27 -2l74 178l51 -21l-70 -171q96 -39 98 -145l-97 -9q-1 51 -34 75l-135 -329l17 -2q79 0 118 110l100 -13q-62 -176 -222 -176q-18 0 -45 4l-72 -175z" />
    <glyph glyph-name="sterling" unicode="&#xa3;" 
d="M0 84q82 47 115 106q17 31 24 66q3 12 3 20l-1 12h-102l17 85h76q-8 51 -8 88q0 94 63 155q63 62 160 62q180 0 196 -179l-95 -9q-14 105 -102 105q-52 0 -87 -39q-34 -40 -34 -100q0 -33 6 -72l2 -11h124l-18 -85h-102v-11q0 -100 -96 -179q30 9 57 9q23 0 46 -5l52 -13
q27 -5 44 -5q46 0 98 26l31 -91q-68 -30 -123 -30q-38 0 -93 18q-62 21 -104 21q-69 0 -138 -41z" />
    <glyph glyph-name="currency" unicode="&#xa4;" horiz-adv-x="666" 
d="M248 461q-67 -64 -67 -141q0 -122 125 -122q100 0 168 91q42 56 42 113q0 54 -34 88t-87 34q-81 0 -147 -63zM121 221q-18 38 -18 79q0 66 35 127q23 39 60 75l-72 98l59 46l71 -97q81 49 156 49t129 -47l121 95l33 -47l-120 -94q20 -40 20 -83q0 -62 -33 -124
q-21 -38 -60 -77l70 -96l-58 -46l-70 95q-82 -50 -158 -50q-74 0 -131 50l-122 -95l-33 46z" />
    <glyph glyph-name="yen" unicode="&#xa5;" horiz-adv-x="666" 
d="M847 750l-61 -227h-57l38 173h-430l141 -425l-383 -467h445l50 173h59l-61 -227h-588l16 58l384 465l-147 420l15 57h579z" />
    <glyph glyph-name="section" unicode="&#xa7;" 
d="M299 107q79 35 79 88q0 24 -17 46q-18 22 -74 70q-47 41 -77 74q-75 -44 -75 -99q0 -39 76 -102zM96 -17q22 -103 111 -103q84 0 84 70q0 37 -72 97q-67 59 -92 84q-25 23 -44 44q-41 45 -41 100q0 76 64 124q25 19 62 38q-32 42 -32 91q0 66 49 108q50 42 127 42
q160 0 183 -155l-99 -10q-3 87 -84 87q-79 0 -79 -70q0 -28 20 -53t86 -81q77 -65 104 -102q27 -39 27 -82q0 -100 -123 -158q42 -51 42 -102q0 -63 -52 -105q-52 -43 -132 -43q-175 0 -205 156z" />
    <glyph glyph-name="dieresis" unicode="&#xa8;" horiz-adv-x="0" 
d="M199 659h98l-21 -102h-98zM21 659h97l-21 -102h-97z" />
    <glyph glyph-name="copyright" unicode="&#xa9;" horiz-adv-x="666" 
d="M183 429q-48 0 -83 -37q-35 -36 -35 -86q0 -63 67 -63q70 0 170 93q-49 93 -119 93zM502 243q47 0 82 36q35 37 35 86q0 64 -69 64q-68 0 -168 -93q50 -93 120 -93zM564 492q121 0 121 -108q0 -81 -61 -143q-60 -62 -139 -62q-98 0 -156 108q-114 -108 -211 -108
q-118 0 -118 110q0 82 61 142q61 61 144 61q94 0 150 -107q110 107 209 107z" />
    <glyph glyph-name="ordfeminine" unicode="&#xaa;" horiz-adv-x="0" 
 />
    <glyph glyph-name="guillemotleft" unicode="&#xab;" horiz-adv-x="485" 
d="M108 240l66 -208h-76l-98 218l185 195h85zM288 240l64 -208h-79l-90 218l176 195h90z" />
    <glyph glyph-name="logicalnot" unicode="&#xac;" horiz-adv-x="500" 
d="M365 0l56 209h-421l16 59h481l-72 -268h-60z" />
    <glyph glyph-name="macron" unicode="&#xaf;" horiz-adv-x="0" 
 />
    <glyph glyph-name="degree" unicode="&#xb0;" horiz-adv-x="500" 
d="M75 571q-21 -32 -21 -63q0 -72 74 -72q64 0 106 60q20 31 20 63q0 72 -73 72q-65 0 -106 -60zM310 571q0 -70 -60 -127q-61 -57 -136 -57q-114 0 -114 109q0 71 60 127q60 57 135 57q115 0 115 -109z" />
    <glyph glyph-name="plusminus" unicode="&#xb1;" horiz-adv-x="520" 
d="M512 393l-14 -52h-149l-61 -72h191l-14 -52h-192l-59 -217h-85l57 217h-186l14 52h185l-22 72h-143l14 52h116l-76 273h96l80 -325l255 325h94l-223 -273h122z" />
    <glyph glyph-name="acute" unicode="&#xb4;" horiz-adv-x="0" 
d="M0 542l90 131h120l-133 -131h-77z" />
    <glyph glyph-name="mu" unicode="&#xb5;" horiz-adv-x="666" 
d="M936 750l-14 -54h-90l-240 -892h91l-15 -54h-252l14 54h93l239 892h-349l-239 -892h92l-15 -54h-251l15 54h91l239 892h-91l14 54h668z" />
    <glyph glyph-name="paragraph" unicode="&#xb6;" horiz-adv-x="565" 
d="M46 -96l111 413q-4 -1 -8 -1h-6q-143 0 -143 124q0 107 91 176q68 51 186 51h231l-11 -41h-48l-194 -722h-53l193 722h-100l-194 -722h-55z" />
    <glyph glyph-name="periodcentered" unicode="&#xb7;" horiz-adv-x="261" 
d="M23 376h110l-23 -109h-110z" />
    <glyph glyph-name="cedilla" unicode="&#xb8;" horiz-adv-x="0" 
 />
    <glyph glyph-name="ordmasculine" unicode="&#xba;" horiz-adv-x="0" 
 />
    <glyph glyph-name="guillemotright" unicode="&#xbb;" horiz-adv-x="494" 
d="M343 233l-64 211l75 1l98 -220l-187 -193h-86zM164 236l-63 208l79 1l89 -220l-178 -193h-91z" />
    <glyph glyph-name="questiondown" unicode="&#xbf;" horiz-adv-x="572" 
d="M350 314q-7 -54 -29 -92q-32 -54 -117 -124q-104 -85 -104 -137q0 -78 101 -78q109 0 130 129l100 -16q-44 -193 -232 -193q-86 0 -142 47q-57 47 -57 118q0 49 32 93q32 43 117 110q58 45 78 72q18 26 26 71h97zM390 480l-23 -109h-109l22 109h110z" />
    <glyph glyph-name="Agrave" unicode="&#xc0;" horiz-adv-x="650" 
d="M465 259l-23 152q-14 97 -19 151q-12 -27 -28 -57q-17 -34 -35 -66l-99 -180h204zM0 0l376 666h128l109 -666h-106l-29 170h-268l-94 -170h-116zM466 733l-91 130h111l55 -130h-75z" />
    <glyph glyph-name="Aacute" unicode="&#xc1;" horiz-adv-x="650" 
d="M465 259l-23 152q-14 97 -19 151q-12 -27 -28 -57q-17 -34 -35 -66l-99 -180h204zM0 0l376 666h128l109 -666h-106l-29 170h-268l-94 -170h-116zM366 733l90 131h120l-133 -131h-77z" />
    <glyph glyph-name="Acircumflex" unicode="&#xc2;" horiz-adv-x="650" 
d="M465 259l-23 152q-14 97 -19 151q-12 -27 -28 -57q-17 -34 -35 -66l-99 -180h204zM0 0l376 666h128l109 -666h-106l-29 170h-268l-94 -170h-116zM409 733h-95l127 131h105l56 -131h-80l-36 81z" />
    <glyph glyph-name="Atilde" unicode="&#xc3;" horiz-adv-x="650" 
d="M465 259l-23 152q-14 97 -19 151q-12 -27 -28 -57q-17 -34 -35 -66l-99 -180h204zM0 0l376 666h128l109 -666h-106l-29 170h-268l-94 -170h-116zM314 733q24 106 89 106q28 0 82 -22q35 -15 49 -15q23 0 33 36h56q-12 -104 -86 -104q-23 0 -47 10q-1 1 -4 2l-21 8
q-42 17 -57 17q-30 0 -36 -38h-58z" />
    <glyph glyph-name="Adieresis" unicode="&#xc4;" horiz-adv-x="650" 
d="M465 259l-23 152q-14 97 -19 151q-12 -27 -28 -57q-17 -34 -35 -66l-99 -180h204zM0 0l376 666h128l109 -666h-106l-29 170h-268l-94 -170h-116zM520 835h98l-21 -102h-98zM342 835h97l-21 -102h-97z" />
    <glyph glyph-name="Aring" unicode="&#xc5;" horiz-adv-x="640" 
d="M465 259l-23 152q-14 97 -19 151q-12 -27 -28 -57q-17 -34 -35 -66l-99 -180h204zM0 0l376 666h128l109 -666h-106l-29 170h-268l-94 -170h-116zM400 783q0 -43 44 -43q43 0 43 43q0 44 -44 44q-45 0 -43 -44zM529 783q0 -35 -25 -60t-61 -25q-35 0 -60 25t-25 60
q0 36 25 61t60 25q86 0 86 -86z" />
    <glyph glyph-name="AE" unicode="&#xc6;" horiz-adv-x="931" 
d="M484 271l63 303h-89l-179 -303h205zM225 179l-106 -179h-119l399 666h613l-19 -92h-335l-39 -182h332l-19 -92h-331l-44 -208h369l-20 -92h-479l38 179h-240z" />
    <glyph glyph-name="Ccedilla" unicode="&#xc7;" horiz-adv-x="669" 
d="M267 -24q85 -9 85 -76q0 -93 -180 -93q-28 0 -57 4l15 52l45 -1q96 0 96 40q0 34 -60 34q-12 0 -23 -2l17 61q-205 40 -205 279q0 174 100 289t252 115q103 0 171 -58q67 -57 78 -155l-106 -10q-24 128 -142 128q-102 0 -172 -91q-70 -90 -70 -223q0 -86 43 -137
q44 -51 117 -51q137 0 186 156l111 -17q-80 -220 -297 -231z" />
    <glyph glyph-name="Egrave" unicode="&#xc8;" horiz-adv-x="620" 
d="M0 0l139 666h487l-19 -92h-375l-39 -182h365l-19 -92h-364l-44 -208h402l-19 -92h-514zM404 733l-91 130h111l55 -130h-75z" />
    <glyph glyph-name="Eacute" unicode="&#xc9;" horiz-adv-x="620" 
d="M0 0l139 666h487l-19 -92h-375l-39 -182h365l-19 -92h-364l-44 -208h402l-19 -92h-514zM304 733l90 131h120l-133 -131h-77z" />
    <glyph glyph-name="Ecircumflex" unicode="&#xca;" horiz-adv-x="620" 
d="M0 0l139 666h487l-19 -92h-375l-39 -182h365l-19 -92h-364l-44 -208h402l-19 -92h-514zM347 733h-95l127 131h105l56 -131h-80l-36 81z" />
    <glyph glyph-name="Edieresis" unicode="&#xcb;" horiz-adv-x="620" 
d="M0 0l139 666h487l-19 -92h-375l-39 -182h365l-19 -92h-364l-44 -208h402l-19 -92h-514zM457 835h98l-21 -102h-98zM279 835h97l-21 -102h-97z" />
    <glyph glyph-name="Igrave" unicode="&#xcc;" horiz-adv-x="261" 
d="M0 0l139 666h112l-139 -666h-112zM217 733l-91 130h111l55 -130h-75z" />
    <glyph glyph-name="Iacute" unicode="&#xcd;" horiz-adv-x="261" 
d="M0 0l139 666h112l-139 -666h-112zM116 733l90 131h120l-133 -131h-77z" />
    <glyph glyph-name="Icircumflex" unicode="&#xce;" horiz-adv-x="297" 
d="M0 0l139 666h112l-139 -666h-112zM158 733h-95l127 131h105l56 -131h-80l-36 81z" />
    <glyph glyph-name="Idieresis" unicode="&#xcf;" horiz-adv-x="307" 
d="M0 0l139 666h112l-139 -666h-112zM269 835h98l-21 -102h-98zM91 835h97l-21 -102h-97z" />
    <glyph glyph-name="Ntilde" unicode="&#xd1;" horiz-adv-x="669" 
d="M0 0l140 666h106l145 -340l53 -132l11 -32l16 87l87 417h106l-139 -666h-106l-173 414q-19 44 -25 60q-5 13 -12 35q-2 -30 -14 -84l-89 -425h-106zM271 733q24 106 89 106q28 0 82 -22q35 -15 49 -15q23 0 33 36h56q-12 -104 -86 -104q-23 0 -47 10q-1 1 -4 2l-21 8
q-42 17 -57 17q-30 0 -36 -38h-58z" />
    <glyph glyph-name="Ograve" unicode="&#xd2;" horiz-adv-x="727" 
d="M159 135q49 -54 128 -54q98 0 171 94q72 94 72 221q0 83 -49 136q-50 53 -127 53q-100 0 -172 -91q-72 -92 -72 -218q0 -87 49 -141zM60 502q103 176 305 176q124 0 200 -80t76 -210q0 -168 -106 -283q-106 -116 -259 -116q-125 0 -200 80q-76 79 -76 211q0 119 60 222z
M414 745l-91 130h111l55 -130h-75z" />
    <glyph glyph-name="Oacute" unicode="&#xd3;" horiz-adv-x="727" 
d="M159 135q49 -54 128 -54q98 0 171 94q72 94 72 221q0 83 -49 136q-50 53 -127 53q-100 0 -172 -91q-72 -92 -72 -218q0 -87 49 -141zM60 502q103 176 305 176q124 0 200 -80t76 -210q0 -168 -106 -283q-106 -116 -259 -116q-125 0 -200 80q-76 79 -76 211q0 119 60 222z
M314 745l90 131h120l-133 -131h-77z" />
    <glyph glyph-name="Ocircumflex" unicode="&#xd4;" horiz-adv-x="727" 
d="M159 135q49 -54 128 -54q98 0 171 94q72 94 72 221q0 83 -49 136q-50 53 -127 53q-100 0 -172 -91q-72 -92 -72 -218q0 -87 49 -141zM60 502q103 176 305 176q124 0 200 -80t76 -210q0 -168 -106 -283q-106 -116 -259 -116q-125 0 -200 80q-76 79 -76 211q0 119 60 222z
M357 745h-95l127 131h105l56 -131h-80l-36 81z" />
    <glyph glyph-name="Otilde" unicode="&#xd5;" horiz-adv-x="727" 
d="M159 135q49 -54 128 -54q98 0 171 94q72 94 72 221q0 83 -49 136q-50 53 -127 53q-100 0 -172 -91q-72 -92 -72 -218q0 -87 49 -141zM60 502q103 176 305 176q124 0 200 -80t76 -210q0 -168 -106 -283q-106 -116 -259 -116q-125 0 -200 80q-76 79 -76 211q0 119 60 222z
M262 745q24 106 89 106q28 0 82 -22q35 -15 49 -15q23 0 33 36h56q-12 -104 -86 -104q-23 0 -47 10q-1 1 -4 2l-21 8q-42 17 -57 17q-30 0 -36 -38h-58z" />
    <glyph glyph-name="Odieresis" unicode="&#xd6;" horiz-adv-x="727" 
d="M159 135q49 -54 128 -54q98 0 171 94q72 94 72 221q0 83 -49 136q-50 53 -127 53q-100 0 -172 -91q-72 -92 -72 -218q0 -87 49 -141zM60 502q103 176 305 176q124 0 200 -80t76 -210q0 -168 -106 -283q-106 -116 -259 -116q-125 0 -200 80q-76 79 -76 211q0 119 60 222z
M467 847h98l-21 -102h-98zM289 847h97l-21 -102h-97z" />
    <glyph glyph-name="Oslash" unicode="&#xd8;" horiz-adv-x="727" 
d="M190 113q50 -34 103 -34q99 0 172 93t73 219q0 61 -28 107zM466 550q-46 35 -109 35q-96 0 -168 -93q-73 -92 -73 -216q0 -63 28 -112zM73 79q-67 78 -67 198q0 170 104 286q104 115 258 115q98 0 165 -48l68 83l51 -44l-70 -84q66 -79 66 -198q-1 -163 -105 -280
q-105 -118 -248 -118q-107 0 -171 44l-71 -83l-53 43z" />
    <glyph glyph-name="Ugrave" unicode="&#xd9;" horiz-adv-x="669" 
d="M206 666l-81 -387l-15 -73q-1 -10 -1 -18q0 -107 132 -107q91 0 134 59q33 46 57 161l76 365h112l-79 -378q-29 -137 -77 -199q-78 -100 -224 -100q-110 0 -175 52q-65 53 -65 142q0 33 8 71l86 412h112zM382 733l-91 130h111l55 -130h-75z" />
    <glyph glyph-name="Uacute" unicode="&#xda;" horiz-adv-x="669" 
d="M206 666l-81 -387l-15 -73q-1 -10 -1 -18q0 -107 132 -107q91 0 134 59q33 46 57 161l76 365h112l-79 -378q-29 -137 -77 -199q-78 -100 -224 -100q-110 0 -175 52q-65 53 -65 142q0 33 8 71l86 412h112zM282 733l90 131h120l-133 -131h-77z" />
    <glyph glyph-name="Ucircumflex" unicode="&#xdb;" horiz-adv-x="669" 
d="M206 666l-81 -387l-15 -73q-1 -10 -1 -18q0 -107 132 -107q91 0 134 59q33 46 57 161l76 365h112l-79 -378q-29 -137 -77 -199q-78 -100 -224 -100q-110 0 -175 52q-65 53 -65 142q0 33 8 71l86 412h112zM325 733h-95l127 131h105l56 -131h-80l-36 81z" />
    <glyph glyph-name="Udieresis" unicode="&#xdc;" horiz-adv-x="669" 
d="M206 666l-81 -387l-15 -73q-1 -10 -1 -18q0 -107 132 -107q91 0 134 59q33 46 57 161l76 365h112l-79 -378q-29 -137 -77 -199q-78 -100 -224 -100q-110 0 -175 52q-65 53 -65 142q0 33 8 71l86 412h112zM435 835h98l-21 -102h-98zM257 835h97l-21 -102h-97z" />
    <glyph glyph-name="germandbls" unicode="&#xdf;" horiz-adv-x="572" 
d="M0 0l95 454q20 100 53 142q63 82 185 82q71 0 115 -33t44 -85q0 -48 -64 -126q-44 -53 -44 -77q0 -30 49 -80q68 -69 68 -127q0 -67 -51 -114t-122 -47q-103 0 -165 98l80 44q35 -57 75 -57q30 0 54 23q23 23 23 52q0 31 -48 79q-69 67 -69 116q0 47 69 133q37 47 37 75
q0 46 -60 46q-52 0 -87 -46q-23 -32 -40 -113l-92 -439h-105z" />
    <glyph glyph-name="agrave" unicode="&#xe0;" 
d="M326 235q-19 -8 -56 -11q-99 -10 -134 -28q-35 -19 -35 -61q0 -67 76 -67q67 0 109 53q24 32 38 102zM308 0q-8 27 -10 57q-71 -68 -155 -68q-63 0 -103 39t-40 100q0 80 57 118q47 33 157 41q96 6 127 18q9 34 9 52q0 57 -87 57q-86 0 -110 -73l-104 9q51 143 222 143
q82 0 131 -35q50 -34 50 -92q0 -29 -12 -89l-13 -60q-25 -116 -25 -155q0 -24 10 -62h-104zM299 560l-91 130h111l55 -130h-75z" />
    <glyph glyph-name="aacute" unicode="&#xe1;" 
d="M326 235q-19 -8 -56 -11q-99 -10 -134 -28q-35 -19 -35 -61q0 -67 76 -67q67 0 109 53q24 32 38 102zM308 0q-8 27 -10 57q-71 -68 -155 -68q-63 0 -103 39t-40 100q0 80 57 118q47 33 157 41q96 6 127 18q9 34 9 52q0 57 -87 57q-86 0 -110 -73l-104 9q51 143 222 143
q82 0 131 -35q50 -34 50 -92q0 -29 -12 -89l-13 -60q-25 -116 -25 -155q0 -24 10 -62h-104zM199 560l90 131h120l-133 -131h-77z" />
    <glyph glyph-name="acircumflex" unicode="&#xe2;" 
d="M326 235q-19 -8 -56 -11q-99 -10 -134 -28q-35 -19 -35 -61q0 -67 76 -67q67 0 109 53q24 32 38 102zM308 0q-8 27 -10 57q-71 -68 -155 -68q-63 0 -103 39t-40 100q0 80 57 118q47 33 157 41q96 6 127 18q9 34 9 52q0 57 -87 57q-86 0 -110 -73l-104 9q51 143 222 143
q82 0 131 -35q50 -34 50 -92q0 -29 -12 -89l-13 -60q-25 -116 -25 -155q0 -24 10 -62h-104zM242 560h-95l127 131h105l56 -131h-80l-36 81z" />
    <glyph glyph-name="atilde" unicode="&#xe3;" 
d="M326 235q-19 -8 -56 -11q-99 -10 -134 -28q-35 -19 -35 -61q0 -67 76 -67q67 0 109 53q24 32 38 102zM308 0q-8 27 -10 57q-71 -68 -155 -68q-63 0 -103 39t-40 100q0 80 57 118q47 33 157 41q96 6 127 18q9 34 9 52q0 57 -87 57q-86 0 -110 -73l-104 9q51 143 222 143
q82 0 131 -35q50 -34 50 -92q0 -29 -12 -89l-13 -60q-25 -116 -25 -155q0 -24 10 -62h-104zM147 560q24 106 89 106q28 0 82 -22q35 -15 49 -15q23 0 33 36h56q-12 -104 -86 -104q-23 0 -47 10q-1 1 -4 2l-21 8q-42 17 -57 17q-30 0 -36 -38h-58z" />
    <glyph glyph-name="adieresis" unicode="&#xe4;" 
d="M326 235q-19 -8 -56 -11q-99 -10 -134 -28q-35 -19 -35 -61q0 -67 76 -67q67 0 109 53q24 32 38 102zM308 0q-8 27 -10 57q-71 -68 -155 -68q-63 0 -103 39t-40 100q0 80 57 118q47 33 157 41q96 6 127 18q9 34 9 52q0 57 -87 57q-86 0 -110 -73l-104 9q51 143 222 143
q82 0 131 -35q50 -34 50 -92q0 -29 -12 -89l-13 -60q-25 -116 -25 -155q0 -24 10 -62h-104zM352 662h98l-21 -102h-98zM174 662h97l-21 -102h-97z" />
    <glyph glyph-name="aring" unicode="&#xe5;" 
d="M326 235q-19 -8 -56 -11q-99 -10 -134 -28q-35 -19 -35 -61q0 -67 76 -67q67 0 109 53q24 32 38 102zM308 0q-8 27 -10 57q-71 -68 -155 -68q-63 0 -103 39t-40 100q0 80 57 118q47 33 157 41q96 6 127 18q9 34 9 52q0 57 -87 57q-86 0 -110 -73l-104 9q51 143 222 143
q82 0 131 -35q50 -34 50 -92q0 -29 -12 -89l-13 -60q-25 -116 -25 -155q0 -24 10 -62h-104zM260 645q0 -43 44 -43q43 0 43 43q0 44 -44 44q-45 0 -43 -44zM389 645q0 -35 -25 -60t-61 -25q-35 0 -60 25t-25 60q0 36 25 61t60 25q86 0 86 -86z" />
    <glyph glyph-name="ae" unicode="&#xe6;" horiz-adv-x="824" 
d="M675 281v17q0 118 -100 118q-107 0 -141 -135h241zM215 217q-115 -15 -115 -80q0 -68 75 -68q116 0 146 164q-41 -8 -106 -16zM422 210q0 -2 -1 -6l-1 -12q0 -53 29 -88q30 -34 74 -34q80 0 124 86l99 -13q-76 -154 -224 -154q-123 0 -178 109q-75 -109 -195 -109
q-149 0 -149 140q0 79 58 118q44 30 132 37l40 4q60 5 106 16q7 25 7 44q0 68 -80 68q-85 0 -111 -75l-102 10q45 142 216 142q109 0 153 -63q63 63 158 63q88 0 141 -55q53 -54 53 -146q0 -36 -7 -82h-342z" />
    <glyph glyph-name="ccedilla" unicode="&#xe7;" horiz-adv-x="494" 
d="M209 -24q86 -9 86 -76q0 -93 -180 -93q-29 0 -58 4l16 52l44 -1q97 0 97 40q0 34 -60 34q-13 0 -23 -2l16 59q-147 32 -147 191q0 135 74 222t189 87q81 0 131 -43q50 -44 52 -118l-102 -9q-3 89 -87 89q-65 0 -108 -67q-44 -68 -43 -170q0 -105 85 -105q83 0 120 108
l103 -14q-57 -159 -200 -173z" />
    <glyph glyph-name="egrave" unicode="&#xe8;" 
d="M358 282v18q0 116 -101 116q-105 0 -139 -134h240zM105 211q-1 -7 -1 -14v-11q0 -50 29 -84t71 -34q84 0 126 88l98 -13q-25 -69 -87 -111q-62 -43 -135 -43q-93 0 -149 58q-57 58 -57 155q0 122 76 207q76 84 186 84q193 0 193 -207q0 -31 -8 -75h-342zM302 560l-91 130
h111l55 -130h-75z" />
    <glyph glyph-name="eacute" unicode="&#xe9;" 
d="M358 282v18q0 116 -101 116q-105 0 -139 -134h240zM105 211q-1 -7 -1 -14v-11q0 -50 29 -84t71 -34q84 0 126 88l98 -13q-25 -69 -87 -111q-62 -43 -135 -43q-93 0 -149 58q-57 58 -57 155q0 122 76 207q76 84 186 84q193 0 193 -207q0 -31 -8 -75h-342zM201 560l90 131
h120l-133 -131h-77z" />
    <glyph glyph-name="ecircumflex" unicode="&#xea;" 
d="M358 282v18q0 116 -101 116q-105 0 -139 -134h240zM105 211q-1 -7 -1 -14v-11q0 -50 29 -84t71 -34q84 0 126 88l98 -13q-25 -69 -87 -111q-62 -43 -135 -43q-93 0 -149 58q-57 58 -57 155q0 122 76 207q76 84 186 84q193 0 193 -207q0 -31 -8 -75h-342zM244 560h-95
l127 131h105l56 -131h-80l-36 81z" />
    <glyph glyph-name="edieresis" unicode="&#xeb;" 
d="M358 282v18q0 116 -101 116q-105 0 -139 -134h240zM105 211q-1 -7 -1 -14v-11q0 -50 29 -84t71 -34q84 0 126 88l98 -13q-25 -69 -87 -111q-62 -43 -135 -43q-93 0 -149 58q-57 58 -57 155q0 122 76 207q76 84 186 84q193 0 193 -207q0 -31 -8 -75h-342zM355 662h98
l-21 -102h-98zM177 662h97l-21 -102h-97z" />
    <glyph glyph-name="igrave" unicode="&#xec;" horiz-adv-x="261" 
d="M0 0l101 482h105l-101 -482h-105zM175 549l-91 130h111l55 -130h-75z" />
    <glyph glyph-name="iacute" unicode="&#xed;" horiz-adv-x="265" 
d="M0 0l101 482h105l-101 -482h-105zM75 549l90 131h120l-133 -131h-77z" />
    <glyph glyph-name="icircumflex" unicode="&#xee;" horiz-adv-x="343" 
d="M0 0l101 482h105l-101 -482h-105zM117 549h-95l127 131h105l56 -131h-80l-36 81z" />
    <glyph glyph-name="idieresis" unicode="&#xef;" horiz-adv-x="353" 
d="M0 0l101 482h105l-101 -482h-105zM228 651h98l-21 -102h-98zM50 651h97l-21 -102h-97z" />
    <glyph glyph-name="ntilde" unicode="&#xf1;" horiz-adv-x="543" 
d="M0 0l101 482h98l-16 -74q88 85 175 85q127 0 127 -116q0 -31 -13 -94l-60 -283h-105l61 291q11 51 11 73q0 50 -59 50q-89 0 -135 -89q-20 -38 -35 -113l-45 -212h-105zM176 560q24 106 89 106q28 0 82 -22q35 -15 49 -15q23 0 33 36h56q-12 -104 -86 -104q-23 0 -47 10
q-1 1 -4 2l-21 8q-42 17 -57 17q-30 0 -36 -38h-58z" />
    <glyph glyph-name="ograve" unicode="&#xf2;" horiz-adv-x="543" 
d="M213 69q65 0 113 66t48 156q0 122 -108 122q-68 0 -114 -63q-47 -62 -47 -153q0 -128 108 -128zM422 437q56 -56 56 -152q0 -129 -76 -212q-77 -84 -194 -84q-95 0 -152 56q-56 57 -56 152q0 131 75 213q76 83 195 83q96 0 152 -56zM313 560l-91 130h111l55 -130h-75z
" />
    <glyph glyph-name="oacute" unicode="&#xf3;" horiz-adv-x="543" 
d="M213 69q65 0 113 66t48 156q0 122 -108 122q-68 0 -114 -63q-47 -62 -47 -153q0 -128 108 -128zM422 437q56 -56 56 -152q0 -129 -76 -212q-77 -84 -194 -84q-95 0 -152 56q-56 57 -56 152q0 131 75 213q76 83 195 83q96 0 152 -56zM213 560l90 131h120l-133 -131h-77z
" />
    <glyph glyph-name="ocircumflex" unicode="&#xf4;" horiz-adv-x="543" 
d="M213 69q65 0 113 66t48 156q0 122 -108 122q-68 0 -114 -63q-47 -62 -47 -153q0 -128 108 -128zM422 437q56 -56 56 -152q0 -129 -76 -212q-77 -84 -194 -84q-95 0 -152 56q-56 57 -56 152q0 131 75 213q76 83 195 83q96 0 152 -56zM256 560h-95l127 131h105l56 -131h-80
l-36 81z" />
    <glyph glyph-name="otilde" unicode="&#xf5;" horiz-adv-x="543" 
d="M213 69q65 0 113 66t48 156q0 122 -108 122q-68 0 -114 -63q-47 -62 -47 -153q0 -128 108 -128zM422 437q56 -56 56 -152q0 -129 -76 -212q-77 -84 -194 -84q-95 0 -152 56q-56 57 -56 152q0 131 75 213q76 83 195 83q96 0 152 -56zM161 560q24 106 89 106q28 0 82 -22
q35 -15 49 -15q23 0 33 36h56q-12 -104 -86 -104q-23 0 -47 10q-1 1 -4 2l-21 8q-42 17 -57 17q-30 0 -36 -38h-58z" />
    <glyph glyph-name="odieresis" unicode="&#xf6;" horiz-adv-x="543" 
d="M213 69q65 0 113 66t48 156q0 122 -108 122q-68 0 -114 -63q-47 -62 -47 -153q0 -128 108 -128zM422 437q56 -56 56 -152q0 -129 -76 -212q-77 -84 -194 -84q-95 0 -152 56q-56 57 -56 152q0 131 75 213q76 83 195 83q96 0 152 -56zM367 662h98l-21 -102h-98zM189 662h97
l-21 -102h-97z" />
    <glyph glyph-name="divide" unicode="&#xf7;" horiz-adv-x="500" 
d="M498 374l-17 -66h-481l17 66h481zM254 167q0 -26 -21 -46q-22 -21 -49 -21q-41 0 -41 39q0 26 22 47t48 21q41 0 41 -40zM355 543q0 -26 -22 -47t-49 -21q-40 0 -40 40q0 29 27 51q21 16 43 16q41 0 41 -39z" />
    <glyph glyph-name="oslash" unicode="&#xf8;" horiz-adv-x="572" 
d="M155 85q30 -18 64 -18q66 0 115 67q49 66 49 157q0 29 -10 56zM336 396q-26 19 -63 19q-69 0 -117 -66q-49 -67 -49 -161q0 -31 11 -57zM54 54q-48 55 -48 145q0 129 76 212q75 83 193 83q70 0 118 -30l54 65l46 -38l-55 -65q46 -59 46 -143q0 -127 -76 -210
q-76 -84 -192 -84q-65 0 -117 28l-54 -64l-45 37z" />
    <glyph glyph-name="ugrave" unicode="&#xf9;" horiz-adv-x="543" 
d="M484 482l-100 -482h-97l15 76q-82 -87 -177 -87q-125 0 -125 115q0 28 6 61l67 317h105l-67 -318q-5 -28 -5 -43q0 -53 59 -53q86 0 136 92q18 33 33 104l45 218h105zM303 549l-91 130h111l55 -130h-75z" />
    <glyph glyph-name="uacute" unicode="&#xfa;" horiz-adv-x="543" 
d="M484 482l-100 -482h-97l15 76q-82 -87 -177 -87q-125 0 -125 115q0 28 6 61l67 317h105l-67 -318q-5 -28 -5 -43q0 -53 59 -53q86 0 136 92q18 33 33 104l45 218h105zM203 549l90 131h120l-133 -131h-77z" />
    <glyph glyph-name="ucircumflex" unicode="&#xfb;" horiz-adv-x="543" 
d="M484 482l-100 -482h-97l15 76q-82 -87 -177 -87q-125 0 -125 115q0 28 6 61l67 317h105l-67 -318q-5 -28 -5 -43q0 -53 59 -53q86 0 136 92q18 33 33 104l45 218h105zM246 549h-95l127 131h105l56 -131h-80l-36 81z" />
    <glyph glyph-name="udieresis" unicode="&#xfc;" horiz-adv-x="543" 
d="M484 482l-100 -482h-97l15 76q-82 -87 -177 -87q-125 0 -125 115q0 28 6 61l67 317h105l-67 -318q-5 -28 -5 -43q0 -53 59 -53q86 0 136 92q18 33 33 104l45 218h105zM357 651h98l-21 -102h-98zM179 651h97l-21 -102h-97z" />
    <glyph glyph-name="ydieresis" unicode="&#xff;" horiz-adv-x="494" 
d="M8 -97q25 -7 46 -7q49 0 93 79l14 25l-82 482h104l38 -266q9 -62 12 -114q12 31 34 74l169 306h110l-303 -538q-43 -77 -75 -105q-36 -34 -94 -34q-37 0 -74 11zM418 651h98l-21 -102h-98zM240 651h97l-21 -102h-97z" />
    <glyph glyph-name="dotlessi" unicode="&#x131;" horiz-adv-x="261" 
d="M0 0l101 482h105l-101 -482h-105z" />
    <glyph glyph-name="OE" unicode="&#x152;" horiz-adv-x="931" 
d="M250 79q128 0 172 158q39 145 39 213q0 56 -39 97q-39 40 -94 40q-93 0 -158 -98q-66 -97 -66 -236q0 -174 146 -174zM918 666l-19 -92h-295l-39 -182h293l-19 -92h-293l-43 -208h327l-19 -92h-436l11 51q-61 -62 -149 -62q-108 0 -172 75q-65 75 -65 202q0 174 96 293
t236 119q108 0 166 -89l16 77h404z" />
    <glyph glyph-name="oe" unicode="&#x153;" horiz-adv-x="882" 
d="M711 281q1 7 1 14v11q0 110 -98 110q-97 0 -138 -135h235zM206 69q68 0 115 65q47 66 47 161q0 51 -29 85q-30 34 -75 34q-68 0 -114 -66t-46 -163q0 -116 102 -116zM463 210v-3l-2 -20q0 -52 29 -85q28 -34 72 -34q80 0 122 88l99 -14q-74 -153 -224 -153
q-110 0 -164 83q-74 -83 -189 -83q-92 0 -149 57q-57 56 -57 147q0 133 74 216q74 84 192 84t170 -80q82 80 184 80q86 0 138 -55t52 -147q0 -40 -9 -81h-338z" />
    <glyph glyph-name="Ydieresis" unicode="&#x178;" horiz-adv-x="620" 
d="M141 0l54 258l-195 408h119l91 -191q30 -65 52 -119q28 53 96 143l128 167h131l-313 -417l-52 -249h-111zM383 835h98l-21 -102h-98zM205 835h97l-21 -102h-97z" />
    <glyph glyph-name="florin" unicode="&#x192;" horiz-adv-x="520" 
d="M530 373h-104l-153 -337q-46 -100 -88 -137q-50 -46 -133 -46q-28 0 -52 4l29 64q26 -3 34 -3q43 0 70 28q26 28 66 115l141 312h-93l24 52h92l46 102q39 87 80 122q53 46 133 46q29 0 63 -5l-29 -64q-23 3 -44 3q-72 0 -119 -104l-45 -100h105z" />
    <glyph glyph-name="circumflex" unicode="&#x2c6;" horiz-adv-x="0" 
d="M95 542h-95l127 131h105l56 -131h-80l-36 81z" />
    <glyph glyph-name="caron" unicode="&#x2c7;" horiz-adv-x="0" 
d="M192 673h95l-127 -131h-105l-55 131h80l34 -81z" />
    <glyph glyph-name="breve" unicode="&#x2d8;" horiz-adv-x="0" 
d="M58 661q13 -65 71 -65q62 0 91 65h57q-36 -125 -151 -125t-126 125h58z" />
    <glyph glyph-name="dotaccent" unicode="&#x2d9;" horiz-adv-x="0" 
 />
    <glyph glyph-name="ring" unicode="&#x2da;" horiz-adv-x="0" 
d="M42 606q0 -43 44 -43q43 0 43 43q0 44 -44 44q-45 0 -43 -44zM171 606q0 -35 -25 -60t-61 -25q-35 0 -60 25t-25 60q0 36 25 61t60 25q86 0 86 -86z" />
    <glyph glyph-name="ogonek" unicode="&#x2db;" horiz-adv-x="0" 
 />
    <glyph glyph-name="tilde" unicode="&#x2dc;" horiz-adv-x="0" 
d="M0 553q24 106 89 106q28 0 82 -22q35 -15 49 -15q23 0 33 36h56q-12 -104 -86 -104q-23 0 -47 10q-1 1 -4 2l-21 8q-42 17 -57 17q-30 0 -36 -38h-58z" />
    <glyph glyph-name="hungarumlaut" unicode="&#x2dd;" horiz-adv-x="0" 
 />
    <glyph glyph-name="uni0394" unicode="&#x394;" horiz-adv-x="666" 
d="M573 60l-87 536l-371 -536h458zM0 0l459 666h90l109 -666h-658z" />
    <glyph glyph-name="uni03A9" unicode="&#x3a9;" horiz-adv-x="0" 
 />
    <glyph glyph-name="pi" unicode="&#x3c0;" horiz-adv-x="410" 
d="M151 590q-37 -46 -37 -110q0 -65 66 -65q51 0 88 46q37 45 37 108q0 67 -65 67q-52 0 -89 -46zM294 280h-294l10 39h295zM364 577q0 -84 -58 -145q-57 -61 -137 -61q-114 0 -114 104q0 83 59 144t139 61q111 0 111 -103z" />
    <glyph glyph-name="endash" unicode="&#x2013;" horiz-adv-x="500" 
d="M498 374l-17 -66h-481l17 66h481z" />
    <glyph glyph-name="emdash" unicode="&#x2014;" horiz-adv-x="931" 
d="M942 274v-84h-942v84h942z" />
    <glyph glyph-name="quoteleft" unicode="&#x2018;" horiz-adv-x="232" 
d="M111 428h-111l19 92q30 146 144 156l-10 -48q-57 -14 -74 -92h55z" />
    <glyph glyph-name="quoteright" unicode="&#x2019;" horiz-adv-x="232" 
d="M52 676h111l-19 -93q-30 -146 -144 -156l10 48q57 14 74 92h-55z" />
    <glyph glyph-name="quotedblleft" unicode="&#x201c;" horiz-adv-x="388" 
d="M291 428h-111l19 92q30 146 144 156l-10 -48q-57 -14 -74 -92h55zM111 428h-111l19 92q30 146 144 156l-10 -48q-57 -14 -74 -92h55z" />
    <glyph glyph-name="quotedblright" unicode="&#x201d;" horiz-adv-x="388" 
d="M234 665h112l-20 -92q-30 -147 -144 -156l10 47q58 14 75 92h-56zM51 665h112l-19 -92q-31 -146 -144 -156l9 47q58 14 75 92h-55z" />
    <glyph glyph-name="quotedblbase" unicode="&#x201e;" horiz-adv-x="388" 
d="M232 108h112l-19 -92q-30 -143 -144 -155l10 48q57 14 74 91h-55zM51 108h111l-19 -92q-30 -143 -143 -155l9 48q57 14 74 91h-55z" />
    <glyph glyph-name="dagger" unicode="&#x2020;" 
d="M277 386l-114 -544h-101l113 544h-175l18 84h175l39 187h102l-40 -187h173l-18 -84h-172z" />
    <glyph glyph-name="daggerdbl" unicode="&#x2021;" 
d="M361 408l-66 -319h171l-18 -85h-171l-34 -162h-101l33 162h-175l18 85h175l67 319h-175l17 85h176l34 164h101l-34 -164h171l-17 -85h-172z" />
    <glyph glyph-name="bullet" unicode="&#x2022;" horiz-adv-x="340" 
d="M174 360q0 -40 -34 -73t-76 -33q-64 0 -64 62q0 40 34 73t76 33q64 0 64 -62z" />
    <glyph glyph-name="ellipsis" unicode="&#x2026;" horiz-adv-x="931" 
d="M644 108h109l-22 -108h-110zM333 108h110l-23 -108h-110zM23 108h109l-22 -108h-110z" />
    <glyph glyph-name="perthousand" unicode="&#x2030;" horiz-adv-x="0" 
 />
    <glyph glyph-name="guilsinglleft" unicode="&#x2039;" horiz-adv-x="310" 
d="M106 240l67 -208h-75l-98 218l184 195h87z" />
    <glyph glyph-name="guilsinglright" unicode="&#x203a;" horiz-adv-x="310" 
d="M162 236l-63 209h78l91 -219l-179 -194h-89z" />
    <glyph glyph-name="fraction" unicode="&#x2044;" horiz-adv-x="178" 
d="M620 657l-566 -657h-54l568 657h52z" />
    <glyph glyph-name="trademark" unicode="&#x2122;" horiz-adv-x="500" 
d="M498 128l-17 -65h-481l17 65h481zM303 417l52 195h65l-52 -195h208l-18 -66h-207l-49 -182h-65l48 182h-207l17 66h208z" />
    <glyph glyph-name="partialdiff" unicode="&#x2202;" horiz-adv-x="595" 
d="M0 0l118 442h-67l17 65h517l-18 -65h-66l-119 -442h-78l118 442h-224l-120 -442h-78z" />
    <glyph glyph-name="product" unicode="&#x220f;" horiz-adv-x="398" 
d="M272 528q-15 -8 -41 -11l-36 -3q-91 -9 -91 -68q0 -35 48 -35q89 0 115 97zM294 280h-294l10 39h294zM240 379v6l-1 4l4 28q-58 -46 -114 -46q-86 0 -86 63q0 104 155 116l41 4q52 4 52 50q0 35 -55 35q-63 0 -88 -62h-54q34 103 155 103q101 0 101 -61q0 -15 -9 -47
l-10 -34q-33 -116 -33 -144v-6q0 -4 1 -9h-59z" />
    <glyph glyph-name="radical" unicode="&#x221a;" horiz-adv-x="666" 
d="M723 735h-142l-488 -749l-22 318h-71l14 53h114l9 -221l413 652h187z" />
    <glyph glyph-name="infinity" unicode="&#x221e;" horiz-adv-x="500" 
d="M481 29h-481l20 76h481zM46 200l443 172l-352 168l19 70l426 -202l-19 -72l-536 -207z" />
    <glyph glyph-name="integral" unicode="&#x222b;" horiz-adv-x="666" 
d="M19 72h185q-41 27 -65 57q-47 60 -47 138q0 163 127 289q126 127 289 127q108 -1 176 -64q68 -64 68 -165q0 -146 -102 -261q-55 -61 -130 -103l-35 -18h184l-19 -72h-275l18 68q96 46 154 104q115 118 115 262q0 77 -48 127q-48 49 -124 49q-125 0 -220 -104
q-94 -104 -94 -242q0 -122 118 -196l-19 -68h-275z" />
    <glyph glyph-name="approxequal" unicode="&#x2248;" horiz-adv-x="500" 
d="M511 303q-43 -52 -73 -76q-48 -40 -91 -40q-29 0 -103 38q-50 25 -65 31t-30 6q-47 0 -122 -90l-27 39q42 49 68 72q53 43 97 43q32 0 113 -41q40 -21 57 -27q16 -7 27 -7q48 0 121 90zM559 480q-41 -48 -73 -76q-50 -40 -92 -40q-27 0 -103 38q-50 26 -65 32
q-15 5 -30 5q-47 0 -121 -89l-28 38q39 46 69 72q51 43 96 43q32 0 113 -41q41 -21 57 -27q16 -7 27 -7q48 0 121 90z" />
    <glyph glyph-name="notequal" unicode="&#x2260;" horiz-adv-x="500" 
d="M481 29h-481l20 76h481zM618 540l-443 -172l352 -168l-19 -71l-427 203l19 71l537 207z" />
    <glyph glyph-name="lessequal" unicode="&#x2264;" horiz-adv-x="500" 
d="M0 -168l174 651h78l-73 -271q-12 -47 -12 -67q0 -93 91 -93q130 0 175 168l71 263h78l-129 -483h-78l21 80q-69 -93 -155 -93q-78 0 -103 73l-61 -228h-77z" />
    <glyph glyph-name="greaterequal" unicode="&#x2265;" horiz-adv-x="500" 
d="M115 285q-43 -57 -43 -116q0 -118 113 -118q78 0 140 65t62 146q0 111 -112 111q-96 0 -160 -88zM418 410q0 50 -21 100q-23 54 -86 87q-56 30 -117 36l28 43q92 -9 153 -56q74 -60 96 -151q11 -47 11 -90q0 -182 -118 -303q-85 -87 -198 -87q-74 0 -120 45
q-46 46 -46 119q0 108 89 196q88 87 198 87q74 0 127 -64q4 25 4 38z" />
    <glyph glyph-name="lozenge" unicode="&#x25ca;" horiz-adv-x="666" 
d="M318 586l-243 -252l108 -251l245 251zM343 681l160 -347l-346 -349l-157 349z" />
    <glyph glyph-name="uniF8FF" unicode="&#xf8ff;" horiz-adv-x="782" 
d="M521 276q0 -77 65 -108q-39 -58 -69 -91q-20 -24 -56 -56q-57 -47 -98 -47q-19 0 -37 9l-36 17l-40 2q-27 2 -45 -4l-47 -17q-20 -8 -41 -8q-48 0 -82 68q-35 68 -35 164q0 132 76 226t182 94q31 0 73 -17q33 -13 45 -13q13 0 45 10q61 22 98 22q92 0 125 -71
q-123 -78 -123 -180zM489 569q-57 -51 -120 -51q45 154 195 173q-18 -72 -75 -122z" />
    <glyph glyph-name="uniFB01" unicode="&#xfb01;" 
d="M402 666h105l-22 -106h-105zM263 0l101 482h105l-101 -482h-105zM0 0l84 404h-73l17 78h73l12 60q14 66 33 93q32 43 105 43q44 0 106 -16l4 -1l-19 -83q-46 14 -72 14q-42 0 -55 -66l-9 -44h92l-17 -78h-92l-84 -404h-105z" />
    <glyph glyph-name="uniFB02" unicode="&#xfb02;" 
d="M262 0l140 666h105l-139 -666h-106zM0 0l84 404h-73l17 78h73l12 60q14 66 33 93q32 43 105 43q44 0 106 -16l4 -1l-19 -83q-46 14 -72 14q-42 0 -55 -66l-9 -44h92l-17 -78h-92l-84 -404h-105z" />
    <glyph glyph-name="glyph180" horiz-adv-x="500" 
d="M422 571l52 -24l-75 -98h149l-17 -64h-180l-80 -104h232l-17 -64h-264l-103 -133l-52 24l85 110h-152l16 63h184l80 104h-235l16 64h268z" />
    <glyph glyph-name="glyph190" horiz-adv-x="500" 
d="M491 606q17 60 17 79q0 27 -29 27q-25 0 -37 -17q-12 -18 -28 -75l-196 -731q-38 -139 -140 -139q-78 0 -78 80q0 30 12 76h61l-3 -9q-15 -56 -15 -73q0 -36 31 -36q28 0 40 21q12 19 33 98l173 643q29 108 48 137q39 63 107 63q72 0 72 -70q0 -23 -10 -74h-58z" />
    <glyph glyph-name="glyph207" horiz-adv-x="261" 
d="M52 108h111l-19 -92q-31 -143 -144 -155l10 48q57 14 74 91h-55z" />
    </font>
</defs>
</svg>
