<?xml version="1.0" standalone="no"?>
<!DOCTYPE svg PUBLIC "-//W3C//DTD SVG 1.1//EN" "http://www.w3.org/Graphics/SVG/1.1/DTD/svg11.dtd" >
<svg xmlns="http://www.w3.org/2000/svg" xmlns:xlink="http://www.w3.org/1999/xlink" version="1.1">
<metadata>
Created by FontForge 20170731 at Mon Dec 26 13:14:53 2005
 By Aleksey,,,
(C)1992 The Font Company Inc., ALL Rights Reserved
</metadata>
<defs>
<font id="Arial-LgtItl" horiz-adv-x="517" >
  <font-face 
    font-family="Arial Light"
    font-weight="300"
    font-style="italic"
    font-stretch="normal"
    units-per-em="1000"
    panose-1="0 0 0 0 0 0 0 0 0 0"
    ascent="800"
    descent="-200"
    x-height="482"
    cap-height="666"
    bbox="0 -250 977 868"
    underline-thickness="20"
    underline-position="-150"
    slope="12"
    unicode-range="U+0020-FB02"
  />
<missing-glyph horiz-adv-x="0" 
 />
    <glyph glyph-name=".notdef" horiz-adv-x="0" 
 />
    <glyph glyph-name=".null" horiz-adv-x="0" 
 />
    <glyph glyph-name="nonmarkingreturn" horiz-adv-x="333" 
 />
    <glyph glyph-name="space" unicode=" " horiz-adv-x="233" 
 />
    <glyph glyph-name="exclam" unicode="!" horiz-adv-x="310" 
d="M97 87l-18 -87h-79l20 87h77zM213 666l-29 -152l-90 -347h-36l50 347l34 152h71z" />
    <glyph glyph-name="quotedbl" unicode="&#x22;" horiz-adv-x="337" 
d="M123 394l37 272h57l-59 -272h-35zM0 394l36 272h58l-59 -272h-35z" />
    <glyph glyph-name="numbersign" unicode="#" horiz-adv-x="579" 
d="M220 413l-49 -147h148l48 147h-147zM460 223h-112l-73 -223h-44l73 223h-147l-74 -223h-43l73 223h-113l9 43h118l48 147h-113l10 43h118l69 210h44l-70 -210h148l69 210h44l-69 -210h107l-10 -43h-111l-48 -147h107z" />
    <glyph glyph-name="dollar" unicode="$" 
d="M206 36q7 -1 14 -1h10q67 0 112 44q46 43 46 107q0 81 -122 128zM296 627q-5 1 -10 1h-7q-60 0 -100 -35q-41 -34 -41 -86q0 -77 105 -127zM349 710l-9 -42q84 -19 118 -72q18 -29 25 -76h-56q-17 89 -96 103l-55 -255q63 -25 99 -50q67 -48 67 -127q0 -85 -64 -143
q-63 -59 -154 -59q-18 0 -28 1l-15 -77h-34l16 81q-146 26 -163 185l57 4q18 -118 118 -142l58 287q-149 63 -149 173q0 73 58 123q57 49 142 49h22l8 37h35z" />
    <glyph glyph-name="percent" unicode="%" horiz-adv-x="828" 
d="M613 285q-44 0 -77 -53q-32 -52 -32 -125q0 -97 72 -97q43 0 71 46q38 62 38 126v9q0 4 -1 8q-7 86 -71 86zM155 638q-44 0 -77 -53q-32 -52 -32 -125q0 -97 72 -97q46 0 77 54t31 133q0 88 -71 88zM685 37q-45 -62 -110 -62q-117 0 -117 141q0 86 46 147q47 62 111 62
q115 0 115 -137q0 -90 -45 -151zM637 678l-491 -703h-53l490 703h54zM227 389q-45 -63 -110 -63q-117 0 -117 142q0 86 46 148q47 62 111 62q115 0 115 -137q0 -90 -45 -152z" />
    <glyph glyph-name="ampersand" unicode="&#x26;" horiz-adv-x="621" 
d="M60 180q0 -61 42 -102q41 -41 103 -41q67 0 159 80q-40 48 -83 117q-45 72 -66 114q-155 -69 -155 -168zM394 556q0 72 -87 72q-94 0 -94 -96q0 -49 34 -113q147 63 147 137zM522 238q-23 -51 -81 -121q40 -51 84 -89l-48 -38q-30 23 -79 83q-50 -39 -86 -58
q-52 -25 -113 -25q-87 0 -143 51t-56 132q0 88 72 149q47 38 121 70q-40 76 -40 134q0 66 44 109t112 43q61 0 101 -35q41 -35 41 -87q0 -103 -182 -181q28 -56 65 -111q35 -53 72 -102q34 44 66 103z" />
    <glyph glyph-name="quotesingle" unicode="'" horiz-adv-x="168" 
d="M0 394l37 272h57l-59 -272h-35z" />
    <glyph glyph-name="parenleft" unicode="(" horiz-adv-x="310" 
d="M285 678q-229 -253 -229 -558q0 -173 58 -315h-42q-72 170 -72 319q0 328 244 554h41z" />
    <glyph glyph-name="parenright" unicode=")" horiz-adv-x="310" 
d="M0 -195q227 254 227 556q0 178 -57 317h43q70 -171 70 -321q0 -327 -243 -552h-40z" />
    <glyph glyph-name="asterisk" unicode="*" horiz-adv-x="362" 
d="M170 678l-4 -63l-4 -61l55 25l56 22l16 -47l-58 -16l-57 -14l78 -93l-40 -30l-34 50l-33 53l-63 -103l-41 30l36 47l41 46l-60 14l-58 16l17 47l55 -22l56 -25l-10 124h52z" />
    <glyph glyph-name="plus" unicode="+" horiz-adv-x="500" 
d="M224 365l35 201h47l-35 -201h215l-8 -47h-215l-36 -201h-47l35 201h-215l8 47h216z" />
    <glyph glyph-name="comma" unicode="," horiz-adv-x="258" 
d="M119 88l-18 -88q-20 -89 -86 -121l-15 33q50 24 62 88h-41l19 88h79z" />
    <glyph glyph-name="hyphen" unicode="-" horiz-adv-x="310" 
d="M258 266l-11 -51h-247l9 51h249z" />
    <glyph glyph-name="period" unicode="." horiz-adv-x="258" 
d="M98 88l-18 -88h-80l19 88h79z" />
    <glyph glyph-name="slash" unicode="/" horiz-adv-x="259" 
d="M430 678l-385 -694h-45l385 694h45z" />
    <glyph glyph-name="zero" unicode="0" 
d="M362 579q-32 45 -83 45q-87 0 -142 -99q-81 -149 -81 -328q0 -73 32 -119t83 -46q84 0 141 100q81 138 81 329q0 73 -31 118zM450 440q-6 -210 -103 -351q-71 -100 -177 -100q-77 0 -124 60q-46 60 -46 160q0 202 103 359q66 101 177 101q77 0 123 -60q47 -61 47 -160v-9
z" />
    <glyph glyph-name="one" unicode="1" 
d="M283 669l-144 -669h-57l114 536q-45 -36 -88 -56t-108 -41l11 48q83 34 135 70q68 45 107 112h30z" />
    <glyph glyph-name="two" unicode="2" 
d="M67 493q35 176 205 176q80 0 135 -50t55 -122q0 -80 -87 -158q-51 -44 -108 -89q-91 -71 -131 -108q-38 -37 -53 -68q-2 -3 -9 -22h327l-11 -52h-390q10 51 28 86q40 76 190 190q110 84 147 128q37 45 37 95q0 54 -38 89q-38 34 -97 34q-112 0 -146 -140z" />
    <glyph glyph-name="three" unicode="3" 
d="M81 507q56 162 201 162q77 0 126 -46q49 -47 49 -119q0 -125 -123 -166q90 -40 90 -138q0 -89 -68 -150t-166 -61q-166 0 -190 165l57 9q23 -128 142 -128q70 0 118 51q49 51 49 125q0 111 -127 111h-13l-19 -2l9 46q30 -3 50 -3q58 0 97 40q39 39 39 99q0 53 -34 88
q-34 34 -87 34q-64 0 -105 -47q-25 -30 -42 -82z" />
    <glyph glyph-name="four" unicode="4" 
d="M282 228l50 227l31 122l-308 -349h227zM0 180l13 64l376 425h44l-94 -441h93l-10 -48h-91l-40 -180h-57l39 180h-273z" />
    <glyph glyph-name="five" unicode="5" 
d="M461 657l-12 -49h-268l-67 -226q69 60 144 60q76 0 123 -53q48 -52 48 -137q0 -110 -71 -187q-71 -76 -174 -76q-176 0 -184 185l55 5q16 -146 134 -146q74 0 129 68q55 67 55 157q0 60 -36 99t-92 39q-78 0 -149 -76l-50 5l97 332h318z" />
    <glyph glyph-name="six" unicode="6" 
d="M230 387q-73 0 -120 -55q-48 -55 -48 -140q0 -71 35 -116q34 -44 89 -44q67 0 116 64q50 63 50 149q0 142 -122 142zM386 513q-17 109 -106 109q-143 0 -205 -263q77 77 163 77q76 0 125 -54q48 -53 48 -138q0 -104 -66 -180q-67 -75 -157 -75q-88 0 -138 64
q-50 63 -50 174q0 194 103 344q67 98 179 98q144 0 161 -148z" />
    <glyph glyph-name="seven" unicode="7" 
d="M419 657l-13 -51q-121 -119 -199 -257q-83 -148 -134 -349h-63q52 203 136 350q69 124 179 236l21 20h-346l11 51h408z" />
    <glyph glyph-name="eight" unicode="8" 
d="M217 339q-66 0 -113 -50q-48 -49 -48 -119q0 -138 130 -138q71 0 118 53q47 52 47 131q0 123 -134 123zM384 513q-5 109 -125 109q-61 0 -101 -38t-40 -96q0 -107 127 -107q139 0 139 127v5zM405 209q0 -94 -63 -157t-157 -63q-85 0 -135 48q-50 47 -50 129
q0 149 141 199q-77 41 -77 123q0 75 58 128q57 53 139 53q76 0 127 -46q52 -47 52 -115q0 -113 -118 -150q83 -58 83 -149z" />
    <glyph glyph-name="nine" unicode="9" 
d="M213 270q73 0 120 55q48 55 48 140q0 71 -35 116q-34 44 -90 44q-67 0 -116 -64q-50 -63 -50 -149q0 -142 123 -142zM57 143q16 -109 106 -109q143 0 204 264q-76 -77 -163 -77q-76 0 -124 54q-48 53 -48 138q0 104 66 180t157 76q87 0 138 -64q50 -64 50 -175
q0 -195 -104 -344q-66 -97 -179 -97q-145 0 -160 147z" />
    <glyph glyph-name="colon" unicode=":" horiz-adv-x="258" 
d="M98 88l-18 -88h-80l19 88h79zM183 482l-19 -88h-79l18 88h80z" />
    <glyph glyph-name="semicolon" unicode=";" horiz-adv-x="258" 
d="M204 482l-19 -88h-79l18 88h80zM119 88l-18 -88q-20 -89 -86 -121l-15 33q50 24 62 88h-41l19 88h79z" />
    <glyph glyph-name="less" unicode="&#x3c;" horiz-adv-x="500" 
d="M514 520l-450 -180l386 -185l-9 -51l-441 210l9 51l514 206z" />
    <glyph glyph-name="equal" unicode="=" horiz-adv-x="500" 
d="M486 294l-8 -47h-478l8 47h478zM512 437l-9 -47h-478l9 47h478z" />
    <glyph glyph-name="greater" unicode="&#x3e;" horiz-adv-x="500" 
d="M9 155l450 179l-386 186l9 51l441 -210l-9 -52l-514 -205z" />
    <glyph glyph-name="question" unicode="?" horiz-adv-x="465" 
d="M121 89l-19 -89h-77l18 89h78zM0 498q18 79 55 119q53 61 145 61q74 0 124 -45q49 -44 49 -111q0 -92 -130 -192q-109 -83 -118 -141q-1 -4 -1 -11l-1 -11h-58q14 104 125 192q97 77 116 123q7 15 7 38q0 46 -34 78q-34 31 -84 31q-109 0 -141 -140z" />
    <glyph glyph-name="at" unicode="@" horiz-adv-x="714" 
d="M291 182q77 4 119 92q30 63 30 111q0 77 -78 77q-64 0 -113 -57t-49 -130q0 -93 85 -93h6zM595 132q-65 -66 -114 -95q-79 -47 -184 -47q-133 0 -215 77t-82 202q0 164 124 286q125 122 291 122q119 0 196 -66t77 -169q0 -142 -107 -235q-82 -73 -161 -73q-40 0 -40 37
q0 9 4 24q-51 -57 -119 -57q-117 0 -117 123q0 98 66 173q66 74 153 74q85 0 105 -76l24 63h43l-97 -265q-8 -22 -10 -30t-2 -13q0 -15 17 -15q65 0 136 79q69 77 69 176q0 97 -67 156q-66 59 -175 59q-146 0 -256 -109q-111 -110 -111 -254q0 -113 73 -185q73 -71 188 -71
q75 0 143 34q44 23 102 75h46z" />
    <glyph glyph-name="A" unicode="A" horiz-adv-x="621" 
d="M480 252l-56 349l-208 -349h264zM386 665l89 1l-2 -1l116 -665h-67l-33 199h-304l-122 -199h-63l388 663z" />
    <glyph glyph-name="B" unicode="B" horiz-adv-x="621" 
d="M306 366q194 0 194 136q0 89 -84 104q-44 7 -107 7h-114l-55 -247h166zM292 53q91 0 135 35q53 44 53 119q0 84 -92 99q-51 7 -112 7h-147l-57 -260h220zM0 0l144 666h204q117 0 167 -49q46 -44 46 -113q0 -114 -124 -160q107 -34 107 -134q0 -64 -40 -120t-101 -75
q-45 -15 -95 -15h-308z" />
    <glyph glyph-name="C" unicode="C" horiz-adv-x="672" 
d="M563 222q-87 -233 -298 -233q-122 0 -194 77q-71 76 -71 208q0 186 116 308q90 96 231 96q225 0 249 -209l-62 -7q-27 163 -181 163q-124 0 -207 -102t-83 -255q0 -104 54 -165q55 -62 147 -62q160 0 240 190z" />
    <glyph glyph-name="D" unicode="D" horiz-adv-x="672" 
d="M194 612l-120 -559h161q133 0 200 61q116 103 116 288q0 164 -123 198q-44 12 -104 12h-130zM337 666q125 0 183 -47q95 -78 95 -226q0 -127 -67 -234q-66 -107 -164 -138q-71 -21 -143 -21h-241l144 666h193z" />
    <glyph glyph-name="E" unicode="E" horiz-adv-x="569" 
d="M554 666l-11 -53h-349l-52 -243h339l-9 -52h-342l-56 -267h380l-8 -51h-446l142 666h412z" />
    <glyph glyph-name="F" unicode="F" 
d="M518 666l-13 -53h-309l-53 -244h317l-14 -52h-314l-71 -317h-61l143 666h375z" />
    <glyph glyph-name="G" unicode="G" horiz-adv-x="724" 
d="M598 331l-53 -261q-140 -81 -272 -81q-125 0 -199 76t-74 204q0 174 105 292q105 117 261 117q222 0 256 -208l-61 -6q-34 164 -195 164q-125 0 -203 -84q-99 -107 -99 -279q0 -104 57 -164t156 -60q93 0 211 62l33 174h-202l11 54h268z" />
    <glyph glyph-name="H" unicode="H" horiz-adv-x="672" 
d="M205 666l-62 -288h381l61 288h63l-141 -666h-62l69 324h-383l-69 -324h-62l143 666h62z" />
    <glyph glyph-name="I" unicode="I" horiz-adv-x="258" 
d="M209 666l-147 -666h-62l146 666h63z" />
    <glyph glyph-name="J" unicode="J" horiz-adv-x="465" 
d="M445 666l-114 -510q-37 -167 -176 -167q-155 0 -155 130q0 22 5 49l56 3q-5 -31 -5 -48q0 -87 95 -87q70 0 96 59q8 18 23 69l4 14l109 488h62z" />
    <glyph glyph-name="K" unicode="K" horiz-adv-x="621" 
d="M206 666l-75 -347l410 347h88l-319 -265l228 -401h-65l-210 362l-150 -124l-52 -238h-61l143 666h63z" />
    <glyph glyph-name="L" unicode="L" 
d="M204 666l-131 -613h349l-12 -53h-410l143 666h61z" />
    <glyph glyph-name="M" unicode="M" horiz-adv-x="775" 
d="M224 666l101 -594l337 594h89l-139 -666h-63l79 380l55 216l-118 -213l-225 -383h-61l-69 407l-24 192l-46 -235l-78 -364h-62l142 666h82z" />
    <glyph glyph-name="N" unicode="N" horiz-adv-x="672" 
d="M209 666l253 -585l125 585h61l-141 -666h-70l-251 580l-124 -580h-62l144 666h65z" />
    <glyph glyph-name="O" unicode="O" horiz-adv-x="724" 
d="M121 101q59 -64 152 -64q116 0 190 85q100 113 100 281q0 98 -59 161t-151 63q-116 0 -193 -88q-99 -114 -99 -275q0 -100 60 -163zM100 563q99 115 252 115q125 0 199 -78q73 -78 73 -211q0 -234 -171 -350q-74 -50 -178 -50q-124 0 -195 72q-80 78 -80 211
q0 176 100 291z" />
    <glyph glyph-name="P" unicode="P" horiz-adv-x="569" 
d="M194 614l-58 -277h127q112 0 152 25q68 43 68 142q0 68 -47 93q-34 17 -117 17h-125zM323 666q120 0 165 -36q58 -45 58 -126q0 -119 -90 -182q-52 -37 -166 -38h-166l-60 -284h-64l142 666h181z" />
    <glyph glyph-name="Q" unicode="Q" horiz-adv-x="724" 
d="M563 402q0 99 -59 162t-151 63q-120 0 -193 -88q-99 -117 -99 -275q0 -100 60 -163q59 -64 152 -64q53 0 111 26l-12 12q-56 52 -95 67l24 45q61 -24 131 -97q131 116 131 312zM558 -22l-29 -43q-47 27 -107 86l-2 -1q-66 -31 -146 -31q-127 0 -200 78q-74 78 -74 214
q0 184 125 307q90 90 227 90q125 0 199 -78q73 -78 73 -211q0 -212 -155 -339q27 -30 89 -72z" />
    <glyph glyph-name="R" unicode="R" horiz-adv-x="621" 
d="M195 615l-56 -260l111 -4q20 -1 40 -1h24q195 0 195 154q0 94 -88 106q-45 5 -104 5h-122zM393 666q180 0 180 -163q0 -127 -117 -176q-43 -17 -110 -25q38 -28 60 -60q29 -42 49 -90q6 -12 21 -48l43 -104h-73q-61 168 -106 240q-22 36 -58 47q-36 12 -130 14l-25 1
l-66 -302h-61l144 666h249z" />
    <glyph glyph-name="S" unicode="S" horiz-adv-x="569" 
d="M60 204q4 -89 45 -124q48 -42 131 -42q80 0 131 39q52 39 52 99q0 47 -31 74t-136 71q-133 55 -162 124q-12 27 -12 60q0 78 61 126q60 47 159 47q159 0 206 -101q14 -32 22 -87l-61 -8q-6 77 -47 110q-45 36 -120 36q-68 0 -113 -34q-44 -35 -44 -88q0 -74 139 -131
q95 -38 134 -65q38 -26 57 -65q13 -29 13 -63q0 -85 -70 -139t-179 -54q-232 0 -235 210z" />
    <glyph glyph-name="T" unicode="T" 
d="M488 666l-11 -51h-206l-134 -615h-62l132 615h-207l11 51h477z" />
    <glyph glyph-name="U" unicode="U" horiz-adv-x="672" 
d="M160 666l-80 -371q-18 -79 -18 -118q0 -62 48 -101t125 -38q140 0 189 122q16 42 32 115l84 391h62l-87 -409q-37 -175 -144 -233q-63 -35 -146 -35q-97 0 -161 54q-64 55 -64 137q0 33 8 68l89 418h63z" />
    <glyph glyph-name="V" unicode="V" horiz-adv-x="569" 
d="M63 666l113 -584l327 584h68l-380 -666h-61l-130 666h63z" />
    <glyph glyph-name="W" unicode="W" horiz-adv-x="828" 
d="M62 666l26 -591l304 591h65l28 -591l292 591h69l-340 -666h-70l-27 584l-299 -584h-70l-40 666h62z" />
    <glyph glyph-name="X" unicode="X" horiz-adv-x="569" 
d="M197 666l155 -284l257 284h76l-305 -335l175 -331h-68l-149 286l-258 -286h-80l313 337l-187 329h71z" />
    <glyph glyph-name="Y" unicode="Y" horiz-adv-x="569" 
d="M67 666l165 -357l278 357h77l-335 -412l-54 -254h-63l54 262l-189 404h67z" />
    <glyph glyph-name="Z" unicode="Z" horiz-adv-x="569" 
d="M559 666l-7 -58l-465 -557h404l-11 -51h-480l10 51l474 563h-386l10 52h451z" />
    <glyph glyph-name="bracketleft" unicode="[" horiz-adv-x="310" 
d="M396 666l-10 -46h-158l-164 -760h158l-9 -44h-213l182 850h214z" />
    <glyph glyph-name="backslash" unicode="\" horiz-adv-x="259" 
d="M45 678l385 -694h-44l-386 694h45z" />
    <glyph glyph-name="bracketright" unicode="]" horiz-adv-x="310" 
d="M0 -184l10 45h158l163 760h-157l9 45h213l-183 -850h-213z" />
    <glyph glyph-name="asciicircum" unicode="^" horiz-adv-x="500" 
d="M0 384l242 282h56l143 -282h-55l-124 241l-208 -241h-54z" />
    <glyph glyph-name="underscore" unicode="_" horiz-adv-x="500" 
d="M499 -132h-499l9 53h499z" />
    <glyph glyph-name="grave" unicode="`" horiz-adv-x="0" 
d="M84 666l45 -119h-45l-84 119h84z" />
    <glyph glyph-name="a" unicode="a" 
d="M363 251q-54 -13 -151 -19q-157 -12 -157 -105q0 -94 111 -94q149 0 184 157zM50 352q47 141 210 141q180 0 180 -131q0 -14 -3 -26l-45 -216l-6 -39q-3 -19 -3 -29q0 -20 9 -52h-60q-7 23 -7 49v13q-70 -73 -176 -73q-149 0 -149 133q0 58 36 96q49 51 181 57
q110 5 157 22l4 19q6 24 6 44q0 89 -131 89q-118 0 -147 -101z" />
    <glyph glyph-name="b" unicode="b" horiz-adv-x="569" 
d="M141 72q40 -41 100 -41q87 0 148 74q60 74 60 180q0 74 -38 119q-39 44 -102 44q-85 0 -138 -65q-70 -83 -70 -208q0 -62 40 -103zM0 0l143 666h54l-54 -255q75 82 175 82q86 0 137 -55q50 -55 50 -149q0 -146 -100 -240q-64 -59 -163 -59q-67 0 -107 26q-29 19 -60 75
l-20 -91h-55z" />
    <glyph glyph-name="c" unicode="c" 
d="M413 155q-67 -165 -225 -165q-85 0 -136 53q-52 54 -52 143q0 125 78 224q66 83 177 83q143 0 180 -145l-55 -6q-28 106 -129 106q-82 0 -138 -77t-56 -190q0 -148 136 -148q116 0 164 127z" />
    <glyph glyph-name="d" unicode="d" horiz-adv-x="569" 
d="M364 410q-40 41 -100 41q-87 0 -147 -74q-61 -74 -61 -181q0 -73 39 -118q38 -44 102 -44q84 0 137 65q70 83 70 208q0 62 -40 103zM547 666l-144 -667h-55l15 72q-73 -81 -176 -81q-187 0 -187 203q0 146 100 240q65 60 165 60q54 0 95 -24t70 -78l61 275h56z" />
    <glyph glyph-name="e" unicode="e" 
d="M373 278q0 3 1 9l1 21q0 141 -123 141q-132 0 -181 -171h302zM61 233q-4 -29 -4 -52q0 -65 37 -106q36 -42 94 -42q92 0 155 113l61 -4q-79 -153 -217 -153q-95 0 -141 56q-46 55 -46 141q0 135 84 232q63 75 170 75q82 0 131 -53q48 -53 48 -144q0 -24 -5 -63h-367z" />
    <glyph glyph-name="f" unicode="f" horiz-adv-x="258" 
d="M262 482l-8 -41h-101l-96 -441h-57l95 441h-76l7 41h77l17 74q26 122 127 122q17 0 65 -9l17 -3l-10 -47q-40 8 -70 8q-57 0 -71 -68l-17 -77h101z" />
    <glyph glyph-name="g" unicode="g" horiz-adv-x="569" 
d="M379 412q-40 39 -102 39q-85 0 -144 -74q-60 -74 -60 -180q0 -164 141 -164q83 0 135 65q70 89 70 212q0 62 -40 102zM518 482l-105 -482q-41 -195 -231 -195q-179 0 -182 132h55q11 -84 125 -84q147 0 179 151l13 62q-69 -76 -174 -76q-181 0 -181 204q0 128 75 214
q75 85 187 85t164 -99l18 88h57z" />
    <glyph glyph-name="h" unicode="h" 
d="M197 666l-56 -273q38 49 78 73q47 27 99 27q131 0 131 -123q0 -31 -9 -72l-65 -298h-56l69 324q3 17 3 32q0 85 -86 85q-155 0 -206 -237l-44 -204h-55l141 666h56z" />
    <glyph glyph-name="i" unicode="i" horiz-adv-x="206" 
d="M199 666l-18 -87h-56l17 87h57zM160 482l-103 -482h-57l103 482h57z" />
    <glyph glyph-name="j" unicode="j" horiz-adv-x="206" 
d="M319 666l-18 -87h-55l18 87h55zM279 482l-113 -523l-7 -31q-28 -127 -102 -127q-23 0 -57 15l14 46q22 -11 35 -11q34 0 44 43l24 96l107 492h55z" />
    <glyph glyph-name="k" unicode="k" horiz-adv-x="465" 
d="M202 666l-96 -440l271 256h85l-204 -180l119 -302h-66l-100 262l-121 -106l-35 -156h-55l146 666h56z" />
    <glyph glyph-name="l" unicode="l" horiz-adv-x="206" 
d="M198 666l-142 -666h-56l140 666h58z" />
    <glyph glyph-name="m" unicode="m" horiz-adv-x="775" 
d="M161 482l-15 -70q77 81 153 81q95 0 128 -91q78 91 164 91q126 0 126 -119v-8q0 -4 -1 -7l-8 -42l-70 -317h-56l64 299q12 59 12 75q0 67 -75 67q-105 0 -156 -122q-21 -49 -32 -107l-47 -212h-55l73 345q2 16 2 25q0 73 -67 73q-60 0 -110 -45q-32 -30 -48 -62t-38 -115
l-6 -23l-43 -198h-56l105 482h56z" />
    <glyph glyph-name="n" unicode="n" 
d="M158 482l-17 -89q38 49 78 73q47 27 99 27q131 0 131 -123q0 -31 -9 -72l-65 -298h-56l69 324q3 17 3 32q0 85 -86 85q-155 0 -206 -237l-44 -204h-55l103 482h55z" />
    <glyph glyph-name="o" unicode="o" 
d="M93 74q37 -42 97 -42q79 0 137 80q57 80 57 190q0 64 -37 105t-96 41q-80 0 -137 -78q-58 -78 -58 -185q0 -68 37 -111zM71 404q71 89 180 89q189 0 189 -201q0 -142 -91 -238q-63 -64 -166 -64q-84 0 -133 51q-50 52 -50 139q0 136 71 224z" />
    <glyph glyph-name="p" unicode="p" horiz-adv-x="569" 
d="M181 72q40 -41 100 -41q87 0 148 74q60 74 60 180q0 74 -38 119q-39 44 -102 44q-85 0 -138 -65q-70 -85 -70 -208q0 -62 40 -103zM0 -184l143 666h55l-15 -71q73 82 175 82q86 0 137 -55q50 -55 50 -149q0 -146 -100 -240q-64 -59 -164 -59q-58 0 -99 22q-37 23 -67 79
l-60 -275h-55z" />
    <glyph glyph-name="q" unicode="q" horiz-adv-x="569" 
d="M364 410q-40 41 -100 41q-87 0 -147 -74q-61 -74 -61 -181q0 -73 39 -118q38 -44 102 -44q84 0 137 65q70 83 70 208q0 62 -40 103zM506 482l-143 -665h-54l54 254q-74 -81 -178 -81q-85 0 -135 55t-50 148q0 146 100 240q65 60 165 60q54 0 95 -24t70 -78l21 91h55z" />
    <glyph glyph-name="r" unicode="r" horiz-adv-x="310" 
d="M155 482l-18 -85q52 96 124 96q45 0 78 -37l-33 -45q-30 27 -64 27q-90 0 -130 -178l-58 -260h-54l103 482h52z" />
    <glyph glyph-name="s" unicode="s" horiz-adv-x="465" 
d="M59 179v-15q0 -128 126 -128q55 0 91 25q37 25 37 63q0 59 -125 110q-118 49 -118 128q0 131 168 131q154 0 171 -139l-56 -6q-16 100 -115 100q-113 0 -113 -77q0 -47 93 -88q72 -32 98 -50q27 -18 43 -49q14 -26 14 -53q0 -63 -52 -102t-134 -39q-187 0 -187 171v15z
" />
    <glyph glyph-name="t" unicode="t" horiz-adv-x="258" 
d="M177 642l-34 -160h90l-11 -41h-88l-71 -331q-5 -22 -5 -42q0 -31 33 -31q27 0 62 13l-10 -50q-33 -10 -69 -10q-74 0 -74 67q0 23 6 48l71 336h-67l9 41h67l26 122z" />
    <glyph glyph-name="u" unicode="u" 
d="M292 0l17 88q-37 -47 -78 -72q-45 -26 -100 -26q-131 0 -131 124q0 29 10 70l65 298h56l-64 -300q-8 -37 -8 -59q0 -82 87 -82q109 0 163 116q20 42 34 92l5 17l47 216h56l-104 -482h-55z" />
    <glyph glyph-name="v" unicode="v" horiz-adv-x="465" 
d="M54 482l69 -415l255 415h59l-294 -482h-55l-88 482h54z" />
    <glyph glyph-name="w" unicode="w" horiz-adv-x="672" 
d="M57 482l64 -404l180 404h56l47 -410l201 410h59l-245 -482h-54l-49 387l-176 -387h-56l-84 482h57z" />
    <glyph glyph-name="x" unicode="x" horiz-adv-x="465" 
d="M151 482l108 -194l174 194h67l-217 -238l135 -244h-64l-111 198l-178 -198h-65l219 244l-135 238h67z" />
    <glyph glyph-name="y" unicode="y" horiz-adv-x="465" 
d="M145 482l70 -427l253 427h60l-348 -582q-57 -95 -114 -95q-25 0 -66 17l6 52q34 -13 57 -13q29 0 54 42l58 97l-86 482h56z" />
    <glyph glyph-name="z" unicode="z" horiz-adv-x="465" 
d="M444 482l-12 -52l-347 -379h298l-10 -51h-373l11 51l350 379h-288l12 52h359z" />
    <glyph glyph-name="braceleft" unicode="{" horiz-adv-x="258" 
d="M97 173l-1 -20l-34 -192q-5 -28 -5 -52q0 -50 82 -52l-7 -40h-15q-112 0 -112 93q0 10 2 26q1 13 4 29l33 187l1 16q0 47 -45 60l7 40q60 16 75 96l32 183q23 135 156 135h15l-8 -41q-58 -1 -80 -21q-21 -19 -32 -78l-32 -180q-14 -83 -81 -114q45 -25 45 -75z" />
    <glyph glyph-name="bar" unicode="|" horiz-adv-x="500" 
d="M194 666l-148 -836h-46l148 836h46z" />
    <glyph glyph-name="braceright" unicode="}" horiz-adv-x="258" 
d="M187 324q0 22 3 41l31 173q5 28 5 51q0 52 -82 52l7 41h15q112 0 112 -93q0 -26 -6 -55l-29 -168q-4 -19 -4 -36q0 -47 44 -61l-7 -39q-61 -18 -74 -97l-33 -181q-23 -136 -156 -136l-13 1l7 40q58 3 79 22q22 19 32 78l32 179q14 83 81 114q-44 23 -44 74z" />
    <glyph glyph-name="asciitilde" unicode="~" horiz-adv-x="500" 
d="M508 685q-37 -50 -65 -76q-46 -41 -88 -41q-28 0 -108 40l-43 21q-39 18 -59 18q-49 0 -119 -92l-26 26q87 112 151 112q20 0 41 -8q21 -7 79 -36q42 -21 61 -28q18 -7 29 -7q53 0 120 96z" />
    <glyph glyph-name="uni00A0" unicode="&#xa0;" horiz-adv-x="233" 
 />
    <glyph glyph-name="exclamdown" unicode="&#xa1;" horiz-adv-x="310" 
d="M116 395l18 87h79l-20 -87h-77zM0 -183l29 152l90 346h36l-51 -346l-33 -152h-71z" />
    <glyph glyph-name="cent" unicode="&#xa2;" 
d="M271 447q-9 1 -20 1q-91 0 -141 -79q-53 -84 -53 -187q0 -86 54 -127zM60 -178l-39 16l71 172q-92 60 -92 177q0 97 49 181q50 83 123 111q37 14 88 14q18 0 30 -2l71 175l39 -20l-68 -165q74 -29 103 -133l-55 -6q-20 69 -67 92l-164 -396q19 -5 43 -5q116 0 165 127
l56 -5q-35 -77 -74 -113q-56 -52 -153 -52q-33 0 -55 5z" />
    <glyph glyph-name="sterling" unicode="&#xa3;" 
d="M327 353l-9 -45h-119v-25q0 -79 -46 -140q-28 -38 -87 -79q46 17 77 17q57 0 116 -25q45 -19 73 -19q38 0 93 27l18 -48q-55 -26 -109 -26q-36 0 -101 22q-52 20 -97 20q-62 0 -127 -42l-9 74q141 86 141 223v21h-97l10 45h83q-10 60 -10 101q0 97 58 158q58 62 149 62
q163 0 182 -162l-54 -8q-23 122 -126 122q-68 0 -110 -46q-43 -47 -43 -121q0 -26 8 -84l3 -22h133z" />
    <glyph glyph-name="currency" unicode="&#xa4;" horiz-adv-x="666" 
d="M169 441q-51 0 -87 -37q-36 -38 -36 -92q0 -85 84 -85q78 0 178 107q-58 107 -139 107zM505 227q52 0 87 38q35 37 35 92q0 84 -85 84q-60 0 -119 -50q-16 -14 -58 -57q63 -107 140 -107zM547 487q127 0 127 -120q0 -76 -52 -131q-52 -54 -125 -54q-101 0 -166 116
q-32 -34 -61 -58q-71 -58 -143 -58q-127 0 -127 122q0 76 53 130q52 53 127 53q98 0 163 -116q106 116 204 116z" />
    <glyph glyph-name="yen" unicode="&#xa5;" horiz-adv-x="520" 
d="M497 403l-7 -39h-153l-70 -89h207l-6 -39h-209l-42 -236h-59l41 236h-199l6 39h197l-37 89h-144l7 39h123l-104 263h67l130 -342l252 342h65l-198 -263h133z" />
    <glyph glyph-name="section" unicode="&#xa7;" 
d="M202 410q-105 -50 -105 -119q0 -30 20 -54q19 -25 79 -70q68 -52 100 -86q110 56 110 118q0 37 -45 74l-146 127zM427 531q-18 100 -117 100q-122 0 -122 -90q0 -34 30 -68q29 -34 129 -116q70 -58 91 -85q22 -28 22 -59q0 -59 -58 -107q-30 -25 -77 -51q53 -62 53 -105
q0 -62 -52 -103q-51 -42 -128 -42q-83 0 -139 46q-40 33 -59 97l55 14q29 -109 142 -109q126 0 126 92q0 32 -30 66q-29 33 -118 104q-65 51 -89 76q-25 25 -36 52q-7 19 -7 36q0 57 44 98q30 29 91 61q-43 53 -43 102q0 60 49 99q50 39 127 39q151 0 172 -140z" />
    <glyph glyph-name="dieresis" unicode="&#xa8;" horiz-adv-x="0" 
d="M232 630l-17 -79h-58l17 79h58zM75 630l-17 -79h-58l17 79h58z" />
    <glyph glyph-name="copyright" unicode="&#xa9;" horiz-adv-x="784" 
d="M534 296q-19 -76 -78 -122q-59 -47 -136 -47q-162 0 -162 160q0 107 69 182t169 75q65 0 109 -36q43 -36 43 -90v-5q0 -4 -1 -8h-44q-2 100 -115 100q-78 0 -131 -62q-53 -61 -53 -152q0 -125 123 -125q124 0 162 130h45zM151 532q-112 -111 -112 -254q0 -110 73 -183
q73 -72 185 -72q143 0 254 111q111 110 111 253q0 110 -72 183q-73 72 -183 72q-145 0 -256 -110zM620 598q82 -81 82 -204q0 -160 -125 -283t-286 -123q-126 0 -208 81q-83 80 -83 204q0 159 126 282q125 123 287 123q125 0 207 -80z" />
    <glyph glyph-name="ordfeminine" unicode="&#xaa;" horiz-adv-x="438" 
d="M255 531q-15 -9 -44 -12l-44 -3q-96 -8 -96 -73q0 -45 59 -45q101 0 122 113zM288 284h-288l4 31h289zM236 375q-3 11 -3 14q0 5 1 12l2 20q-54 -54 -117 -54q-92 0 -92 70q0 97 143 108l50 4q46 4 46 52q0 46 -66 46q-73 0 -93 -72h-40q24 103 141 103q101 0 101 -67
q0 -12 -4 -35l-22 -121q-7 -37 -7 -58q0 -7 3 -22h-43z" />
    <glyph glyph-name="guillemotleft" unicode="&#xab;" 
d="M398 445l-157 -204l72 -208h-43l-90 217l175 195h43zM221 445l-162 -205l77 -207h-42l-94 216l179 196h42z" />
    <glyph glyph-name="logicalnot" unicode="&#xac;" horiz-adv-x="507" 
d="M433 403h-189l-94 -533h-56l94 533h-188l8 51h189l37 212h57l-38 -212h189z" />
    <glyph glyph-name="macron" unicode="&#xaf;" horiz-adv-x="0" 
 />
    <glyph glyph-name="degree" unicode="&#xb0;" horiz-adv-x="500" 
d="M78 605q-37 -37 -37 -84q0 -86 85 -86q48 0 85 37t37 85q0 85 -85 85q-48 0 -85 -37zM255 646q34 -33 34 -83q0 -65 -51 -114q-51 -50 -118 -50q-52 0 -86 33t-34 83q0 64 52 114q51 50 118 50q51 0 85 -33z" />
    <glyph glyph-name="plusminus" unicode="&#xb1;" horiz-adv-x="500" 
d="M487 119l-9 -47h-478l9 47h478zM272 391l36 202h47l-36 -202h216l-9 -47h-215l-33 -185h-47l33 185h-215l8 47h215z" />
    <glyph glyph-name="acute" unicode="&#xb4;" horiz-adv-x="0" 
d="M171 666l-124 -119h-47l77 119h94z" />
    <glyph glyph-name="mu" unicode="&#xb5;" horiz-adv-x="500" 
d="M0 -166l114 647h55l-49 -278q-7 -42 -7 -59q0 -49 32 -80q31 -32 80 -32q64 0 114 51t64 131l47 267h55l-85 -481h-54l16 93q-31 -48 -56 -68q-48 -39 -109 -39q-86 0 -122 78l-40 -230h-55z" />
    <glyph glyph-name="paragraph" unicode="&#xb6;" horiz-adv-x="539" 
d="M99 -99l73 412h-13q-159 0 -159 142q0 98 79 162q60 50 173 50h222l-6 -32h-48l-129 -734h-40l129 734h-110l-130 -734h-41z" />
    <glyph glyph-name="periodcentered" unicode="&#xb7;" horiz-adv-x="258" 
d="M98 373l-19 -89h-79l19 89h79z" />
    <glyph glyph-name="cedilla" unicode="&#xb8;" horiz-adv-x="0" 
 />
    <glyph glyph-name="ordmasculine" unicode="&#xba;" horiz-adv-x="445" 
d="M117 601q-37 -45 -37 -111q0 -89 83 -89q54 0 90 44q36 43 36 109q0 91 -82 91q-54 0 -90 -44zM289 284h-289l5 31h289zM332 558q0 -82 -50 -136q-51 -55 -125 -55q-120 0 -120 120q0 81 51 136t126 55q118 0 118 -120z" />
    <glyph glyph-name="guillemotright" unicode="&#xbb;" 
d="M321 444l87 -218l-175 -194h-53l165 202l-68 210h44zM145 444l81 -217l-173 -195h-53l165 207l-65 205h45z" />
    <glyph glyph-name="questiondown" unicode="&#xbf;" horiz-adv-x="465" 
d="M253 392l18 90h78l-19 -90h-77zM373 -15q-18 -78 -54 -120q-54 -60 -146 -60q-74 0 -124 45q-49 45 -49 111q0 91 130 191q109 84 118 141q1 5 1 10q1 7 1 12h58q-13 -104 -125 -192q-97 -77 -115 -123q-8 -17 -8 -38q0 -45 34 -76q34 -32 85 -32q107 0 141 140z" />
    <glyph glyph-name="Agrave" unicode="&#xc0;" horiz-adv-x="621" 
d="M480 252l-56 349l-208 -349h264zM386 665l89 1l-2 -1l116 -665h-67l-33 199h-304l-122 -199h-63l388 663zM466 852l45 -119h-45l-84 119h84z" />
    <glyph glyph-name="Aacute" unicode="&#xc1;" horiz-adv-x="621" 
d="M480 252l-56 349l-208 -349h264zM386 665l89 1l-2 -1l116 -665h-67l-33 199h-304l-122 -199h-63l388 663zM544 852l-124 -119h-47l77 119h94z" />
    <glyph glyph-name="Acircumflex" unicode="&#xc2;" horiz-adv-x="621" 
d="M480 252l-56 349l-208 -349h264zM386 665l89 1l-2 -1l116 -665h-67l-33 199h-304l-122 -199h-63l388 663zM516 852l57 -119h-57l-40 84l-85 -84h-71l119 119h77z" />
    <glyph glyph-name="Atilde" unicode="&#xc3;" horiz-adv-x="621" 
d="M480 252l-56 349l-208 -349h264zM386 665l89 1l-2 -1l116 -665h-67l-33 199h-304l-122 -199h-63l388 663zM598 817q-24 -84 -83 -84q-11 0 -38 9l-44 14q-13 4 -22 6q-11 3 -16 3q-17 0 -36 -31h-47q34 84 86 84q17 0 50 -11l53 -19q3 -1 11 -1h2q23 0 35 30h49z" />
    <glyph glyph-name="Adieresis" unicode="&#xc4;" horiz-adv-x="621" 
d="M480 252l-56 349l-208 -349h264zM386 665l89 1l-2 -1l116 -665h-67l-33 199h-304l-122 -199h-63l388 663zM571 812l-17 -79h-58l17 79h58zM414 812l-17 -79h-58l17 79h58z" />
    <glyph glyph-name="Aring" unicode="&#xc5;" horiz-adv-x="621" 
d="M480 252l-56 349l-208 -349h264zM386 665l89 1l-2 -1l116 -665h-67l-33 199h-304l-122 -199h-63l388 663zM436 735q50 0 50 52q0 51 -51 51q-49 0 -49 -51q0 -52 50 -52zM435 868q35 0 59 -24q25 -25 25 -59q0 -82 -83 -82q-34 0 -58 24t-24 58q0 83 81 83z" />
    <glyph glyph-name="AE" unicode="&#xc6;" horiz-adv-x="931" 
d="M467 613l-236 -360h246l79 360h-89zM977 666l-12 -53h-346l-52 -243h338l-11 -52h-339l-57 -266h381l-10 -52h-446l43 201h-268l-130 -201h-68l432 666h545z" />
    <glyph glyph-name="Ccedilla" unicode="&#xc7;" horiz-adv-x="672" 
d="M258 -36q78 -13 78 -70q0 -90 -165 -90q-35 0 -70 5l22 40l36 -2q123 0 123 45q0 41 -86 45l28 55h-1q-223 33 -223 282q0 186 116 308q90 96 231 96q225 0 249 -209l-62 -7q-27 163 -181 163q-124 0 -207 -102t-83 -255q0 -104 54 -165q55 -62 147 -62q178 0 237 191
l62 -10q-85 -228 -292 -233z" />
    <glyph glyph-name="Egrave" unicode="&#xc8;" horiz-adv-x="569" 
d="M554 666l-11 -53h-349l-52 -243h339l-9 -52h-342l-56 -267h380l-8 -51h-446l142 666h412zM379 852l45 -119h-45l-84 119h84z" />
    <glyph glyph-name="Eacute" unicode="&#xc9;" horiz-adv-x="569" 
d="M554 666l-11 -53h-349l-52 -243h339l-9 -52h-342l-56 -267h380l-8 -51h-446l142 666h412zM458 852l-124 -119h-47l77 119h94z" />
    <glyph glyph-name="Ecircumflex" unicode="&#xca;" horiz-adv-x="569" 
d="M554 666l-11 -53h-349l-52 -243h339l-9 -52h-342l-56 -267h380l-8 -51h-446l142 666h412zM429 852l57 -119h-57l-40 84l-85 -84h-71l119 119h77z" />
    <glyph glyph-name="Edieresis" unicode="&#xcb;" horiz-adv-x="569" 
d="M554 666l-11 -53h-349l-52 -243h339l-9 -52h-342l-56 -267h380l-8 -51h-446l142 666h412zM484 812l-17 -79h-58l17 79h58zM327 812l-17 -79h-58l17 79h58z" />
    <glyph glyph-name="Igrave" unicode="&#xcc;" horiz-adv-x="258" 
d="M209 666l-147 -666h-62l146 666h63zM207 852l45 -119h-45l-84 119h84z" />
    <glyph glyph-name="Iacute" unicode="&#xcd;" horiz-adv-x="258" 
d="M209 666l-147 -666h-62l146 666h63zM285 852l-124 -119h-47l77 119h94z" />
    <glyph glyph-name="Icircumflex" unicode="&#xce;" horiz-adv-x="302" 
d="M209 666l-147 -666h-62l146 666h63zM256 852l57 -119h-57l-40 84l-85 -84h-71l119 119h77z" />
    <glyph glyph-name="Idieresis" unicode="&#xcf;" horiz-adv-x="280" 
d="M209 666l-147 -666h-62l146 666h63zM311 812l-17 -79h-58l17 79h58zM154 812l-17 -79h-58l17 79h58z" />
    <glyph glyph-name="Ntilde" unicode="&#xd1;" horiz-adv-x="672" 
d="M209 666l253 -585l125 585h61l-141 -666h-70l-251 580l-124 -580h-62l144 666h65zM559 817q-24 -84 -83 -84q-11 0 -38 9l-44 14q-13 4 -22 6q-11 3 -16 3q-17 0 -36 -31h-47q34 84 86 84q17 0 50 -11l53 -19q3 -1 11 -1h2q23 0 35 30h49z" />
    <glyph glyph-name="Ograve" unicode="&#xd2;" horiz-adv-x="724" 
d="M121 101q59 -64 152 -64q116 0 190 85q100 113 100 281q0 98 -59 161t-151 63q-116 0 -193 -88q-99 -114 -99 -275q0 -100 60 -163zM100 563q99 115 252 115q125 0 199 -78q73 -78 73 -211q0 -234 -171 -350q-74 -50 -178 -50q-124 0 -195 72q-80 78 -80 211
q0 176 100 291zM417 864l45 -119h-45l-84 119h84z" />
    <glyph glyph-name="Oacute" unicode="&#xd3;" horiz-adv-x="724" 
d="M121 101q59 -64 152 -64q116 0 190 85q100 113 100 281q0 98 -59 161t-151 63q-116 0 -193 -88q-99 -114 -99 -275q0 -100 60 -163zM100 563q99 115 252 115q125 0 199 -78q73 -78 73 -211q0 -234 -171 -350q-74 -50 -178 -50q-124 0 -195 72q-80 78 -80 211
q0 176 100 291zM496 864l-124 -119h-47l77 119h94z" />
    <glyph glyph-name="Ocircumflex" unicode="&#xd4;" horiz-adv-x="724" 
d="M121 101q59 -64 152 -64q116 0 190 85q100 113 100 281q0 98 -59 161t-151 63q-116 0 -193 -88q-99 -114 -99 -275q0 -100 60 -163zM100 563q99 115 252 115q125 0 199 -78q73 -78 73 -211q0 -234 -171 -350q-74 -50 -178 -50q-124 0 -195 72q-80 78 -80 211
q0 176 100 291zM467 864l57 -119h-57l-40 84l-85 -84h-71l119 119h77z" />
    <glyph glyph-name="Otilde" unicode="&#xd5;" horiz-adv-x="724" 
d="M121 101q59 -64 152 -64q116 0 190 85q100 113 100 281q0 98 -59 161t-151 63q-116 0 -193 -88q-99 -114 -99 -275q0 -100 60 -163zM100 563q99 115 252 115q125 0 199 -78q73 -78 73 -211q0 -234 -171 -350q-74 -50 -178 -50q-124 0 -195 72q-80 78 -80 211
q0 176 100 291zM549 829q-24 -84 -83 -84q-11 0 -38 9l-44 14q-13 4 -22 6q-11 3 -16 3q-17 0 -36 -31h-47q34 84 86 84q17 0 50 -11l53 -19q3 -1 11 -1h2q23 0 35 30h49z" />
    <glyph glyph-name="Odieresis" unicode="&#xd6;" horiz-adv-x="724" 
d="M121 101q59 -64 152 -64q116 0 190 85q100 113 100 281q0 98 -59 161t-151 63q-116 0 -193 -88q-99 -114 -99 -275q0 -100 60 -163zM100 563q99 115 252 115q125 0 199 -78q73 -78 73 -211q0 -234 -171 -350q-74 -50 -178 -50q-124 0 -195 72q-80 78 -80 211
q0 176 100 291zM522 824l-17 -79h-58l17 79h58zM365 824l-17 -79h-58l17 79h58z" />
    <glyph glyph-name="Oslash" unicode="&#xd8;" horiz-adv-x="724" 
d="M491 577q-59 50 -138 50q-120 0 -193 -88q-99 -117 -99 -275q0 -84 44 -145zM134 88q60 -51 139 -51q116 0 190 85q100 113 100 281q0 84 -44 143zM558 591q65 -77 65 -205q0 -232 -170 -347q-72 -50 -179 -50q-110 0 -177 55l-55 -64l-31 26l57 68q-68 79 -68 208
q0 183 125 306q90 90 227 90q101 0 173 -56l2 -1l55 64l32 -28z" />
    <glyph glyph-name="Ugrave" unicode="&#xd9;" horiz-adv-x="672" 
d="M160 666l-80 -371q-18 -79 -18 -118q0 -62 48 -101t125 -38q140 0 189 122q16 42 32 115l84 391h62l-87 -409q-37 -175 -144 -233q-63 -35 -146 -35q-97 0 -161 54q-64 55 -64 137q0 33 8 68l89 418h63zM385 852l45 -119h-45l-84 119h84z" />
    <glyph glyph-name="Uacute" unicode="&#xda;" horiz-adv-x="672" 
d="M160 666l-80 -371q-18 -79 -18 -118q0 -62 48 -101t125 -38q140 0 189 122q16 42 32 115l84 391h62l-87 -409q-37 -175 -144 -233q-63 -35 -146 -35q-97 0 -161 54q-64 55 -64 137q0 33 8 68l89 418h63zM463 852l-124 -119h-47l77 119h94z" />
    <glyph glyph-name="Ucircumflex" unicode="&#xdb;" horiz-adv-x="672" 
d="M160 666l-80 -371q-18 -79 -18 -118q0 -62 48 -101t125 -38q140 0 189 122q16 42 32 115l84 391h62l-87 -409q-37 -175 -144 -233q-63 -35 -146 -35q-97 0 -161 54q-64 55 -64 137q0 33 8 68l89 418h63zM435 852l57 -119h-57l-40 84l-85 -84h-71l119 119h77z" />
    <glyph glyph-name="Udieresis" unicode="&#xdc;" horiz-adv-x="672" 
d="M160 666l-80 -371q-18 -79 -18 -118q0 -62 48 -101t125 -38q140 0 189 122q16 42 32 115l84 391h62l-87 -409q-37 -175 -144 -233q-63 -35 -146 -35q-97 0 -161 54q-64 55 -64 137q0 33 8 68l89 418h63zM489 812l-17 -79h-58l17 79h58zM332 812l-17 -79h-58l17 79h58z
" />
    <glyph glyph-name="germandbls" unicode="&#xdf;" horiz-adv-x="465" 
d="M0 0l104 469q21 90 44 128q47 81 154 81q131 0 131 -108q0 -29 -13 -52q-13 -25 -61 -86l-37 -47q-17 -23 -17 -34t9 -23t43 -46q71 -70 71 -140q0 -64 -44 -108t-109 -44q-84 0 -134 82l46 32q41 -65 89 -65q38 0 67 30q28 31 28 72q0 47 -50 97q-49 50 -62 70t-13 45
q0 19 11 37t53 67q64 76 64 116q0 57 -78 57q-71 0 -104 -64q-21 -43 -37 -118l-98 -448h-57z" />
    <glyph glyph-name="agrave" unicode="&#xe0;" 
d="M363 251q-54 -13 -151 -19q-157 -12 -157 -105q0 -94 111 -94q149 0 184 157zM50 352q47 141 210 141q180 0 180 -131q0 -14 -3 -26l-45 -216l-6 -39q-3 -19 -3 -29q0 -20 9 -52h-60q-7 23 -7 49v13q-70 -73 -176 -73q-149 0 -149 133q0 58 36 96q49 51 181 57
q110 5 157 22l4 19q6 24 6 44q0 89 -131 89q-118 0 -147 -101zM305 679l45 -119h-45l-84 119h84z" />
    <glyph glyph-name="aacute" unicode="&#xe1;" 
d="M363 251q-54 -13 -151 -19q-157 -12 -157 -105q0 -94 111 -94q149 0 184 157zM50 352q47 141 210 141q180 0 180 -131q0 -14 -3 -26l-45 -216l-6 -39q-3 -19 -3 -29q0 -20 9 -52h-60q-7 23 -7 49v13q-70 -73 -176 -73q-149 0 -149 133q0 58 36 96q49 51 181 57
q110 5 157 22l4 19q6 24 6 44q0 89 -131 89q-118 0 -147 -101zM384 679l-124 -119h-47l77 119h94z" />
    <glyph glyph-name="acircumflex" unicode="&#xe2;" 
d="M363 251q-54 -13 -151 -19q-157 -12 -157 -105q0 -94 111 -94q149 0 184 157zM50 352q47 141 210 141q180 0 180 -131q0 -14 -3 -26l-45 -216l-6 -39q-3 -19 -3 -29q0 -20 9 -52h-60q-7 23 -7 49v13q-70 -73 -176 -73q-149 0 -149 133q0 58 36 96q49 51 181 57
q110 5 157 22l4 19q6 24 6 44q0 89 -131 89q-118 0 -147 -101zM355 679l57 -119h-57l-40 84l-85 -84h-71l119 119h77z" />
    <glyph glyph-name="atilde" unicode="&#xe3;" 
d="M363 251q-54 -13 -151 -19q-157 -12 -157 -105q0 -94 111 -94q149 0 184 157zM50 352q47 141 210 141q180 0 180 -131q0 -14 -3 -26l-45 -216l-6 -39q-3 -19 -3 -29q0 -20 9 -52h-60q-7 23 -7 49v13q-70 -73 -176 -73q-149 0 -149 133q0 58 36 96q49 51 181 57
q110 5 157 22l4 19q6 24 6 44q0 89 -131 89q-118 0 -147 -101zM437 644q-24 -84 -83 -84q-11 0 -38 9l-44 14q-13 4 -22 6q-11 3 -16 3q-17 0 -36 -31h-47q34 84 86 84q17 0 50 -11l53 -19q3 -1 11 -1h2q23 0 35 30h49z" />
    <glyph glyph-name="adieresis" unicode="&#xe4;" 
d="M363 251q-54 -13 -151 -19q-157 -12 -157 -105q0 -94 111 -94q149 0 184 157zM50 352q47 141 210 141q180 0 180 -131q0 -14 -3 -26l-45 -216l-6 -39q-3 -19 -3 -29q0 -20 9 -52h-60q-7 23 -7 49v13q-70 -73 -176 -73q-149 0 -149 133q0 58 36 96q49 51 181 57
q110 5 157 22l4 19q6 24 6 44q0 89 -131 89q-118 0 -147 -101zM410 639l-17 -79h-58l17 79h58zM253 639l-17 -79h-58l17 79h58z" />
    <glyph glyph-name="aring" unicode="&#xe5;" 
d="M363 251q-54 -13 -151 -19q-157 -12 -157 -105q0 -94 111 -94q149 0 184 157zM50 352q47 141 210 141q180 0 180 -131q0 -14 -3 -26l-45 -216l-6 -39q-3 -19 -3 -29q0 -20 9 -52h-60q-7 23 -7 49v13q-70 -73 -176 -73q-149 0 -149 133q0 58 36 96q49 51 181 57
q110 5 157 22l4 19q6 24 6 44q0 89 -131 89q-118 0 -147 -101zM310 592q50 0 50 52q0 51 -51 51q-49 0 -49 -51q0 -52 50 -52zM309 725q35 0 59 -24q25 -25 25 -59q0 -82 -83 -82q-34 0 -58 24t-24 58q0 83 81 83z" />
    <glyph glyph-name="ae" unicode="&#xe6;" horiz-adv-x="828" 
d="M224 234q-96 -5 -134 -34q-35 -26 -35 -70q0 -96 106 -96q149 0 184 215q-63 -13 -121 -15zM696 277v5l2 26q0 62 -33 103q-34 41 -85 41q-86 0 -134 -83q-21 -36 -37 -92h287zM400 234l-2 -17q-4 -25 -4 -52q0 -57 34 -94q33 -38 84 -38q94 0 156 114l56 -5
q-70 -152 -202 -152q-129 0 -170 115q-66 -115 -201 -115q-68 0 -109 36q-42 37 -42 96q0 56 31 94q43 53 189 60q87 4 136 17q11 44 11 63q0 96 -112 96q-122 0 -150 -102l-56 4q17 57 43 83q58 56 160 56q112 0 164 -77q64 77 160 77q174 0 174 -202q0 -18 -3 -57h-347z
" />
    <glyph glyph-name="ccedilla" unicode="&#xe7;" 
d="M181 -45q72 -15 72 -62q0 -72 -117 -72q-41 0 -72 11l18 34l18 -3q23 -5 39 -5q65 0 65 36q0 38 -52 38l-16 -1l23 60h-2q-157 18 -157 195q0 98 49 181q49 84 123 112q37 14 86 14q137 0 177 -145l-55 -6q-30 106 -129 106q-91 0 -141 -79q-53 -84 -53 -187
q0 -149 135 -149q116 0 165 127l56 -5q-73 -162 -218 -165z" />
    <glyph glyph-name="egrave" unicode="&#xe8;" 
d="M373 278q0 3 1 9l1 21q0 141 -123 141q-132 0 -181 -171h302zM61 233q-4 -29 -4 -52q0 -65 37 -106q36 -42 94 -42q92 0 155 113l61 -4q-79 -153 -217 -153q-95 0 -141 56q-46 55 -46 141q0 135 84 232q63 75 170 75q82 0 131 -53q48 -53 48 -144q0 -24 -5 -63h-367z
M303 679l45 -119h-45l-84 119h84z" />
    <glyph glyph-name="eacute" unicode="&#xe9;" 
d="M373 278q0 3 1 9l1 21q0 141 -123 141q-132 0 -181 -171h302zM61 233q-4 -29 -4 -52q0 -65 37 -106q36 -42 94 -42q92 0 155 113l61 -4q-79 -153 -217 -153q-95 0 -141 56q-46 55 -46 141q0 135 84 232q63 75 170 75q82 0 131 -53q48 -53 48 -144q0 -24 -5 -63h-367z
M381 679l-124 -119h-47l77 119h94z" />
    <glyph glyph-name="ecircumflex" unicode="&#xea;" 
d="M373 278q0 3 1 9l1 21q0 141 -123 141q-132 0 -181 -171h302zM61 233q-4 -29 -4 -52q0 -65 37 -106q36 -42 94 -42q92 0 155 113l61 -4q-79 -153 -217 -153q-95 0 -141 56q-46 55 -46 141q0 135 84 232q63 75 170 75q82 0 131 -53q48 -53 48 -144q0 -24 -5 -63h-367z
M353 679l57 -119h-57l-40 84l-85 -84h-71l119 119h77z" />
    <glyph glyph-name="edieresis" unicode="&#xeb;" 
d="M373 278q0 3 1 9l1 21q0 141 -123 141q-132 0 -181 -171h302zM61 233q-4 -29 -4 -52q0 -65 37 -106q36 -42 94 -42q92 0 155 113l61 -4q-79 -153 -217 -153q-95 0 -141 56q-46 55 -46 141q0 135 84 232q63 75 170 75q82 0 131 -53q48 -53 48 -144q0 -24 -5 -63h-367z
M407 639l-17 -79h-58l17 79h58zM250 639l-17 -79h-58l17 79h58z" />
    <glyph glyph-name="igrave" unicode="&#xec;" horiz-adv-x="206" 
d="M160 482l-103 -482h-57l103 482h57zM164 668l45 -119h-45l-84 119h84z" />
    <glyph glyph-name="iacute" unicode="&#xed;" horiz-adv-x="216" 
d="M160 482l-103 -482h-57l103 482h57zM242 668l-124 -119h-47l77 119h94z" />
    <glyph glyph-name="icircumflex" unicode="&#xee;" horiz-adv-x="298" 
d="M160 482l-103 -482h-57l103 482h57zM213 668l57 -119h-57l-40 84l-85 -84h-71l119 119h77z" />
    <glyph glyph-name="idieresis" unicode="&#xef;" horiz-adv-x="278" 
d="M160 482l-103 -482h-57l103 482h57zM268 628l-17 -79h-58l17 79h58zM111 628l-17 -79h-58l17 79h58z" />
    <glyph glyph-name="ntilde" unicode="&#xf1;" 
d="M158 482l-17 -89q38 49 78 73q47 27 99 27q131 0 131 -123q0 -31 -9 -72l-65 -298h-56l69 324q3 17 3 32q0 85 -86 85q-155 0 -206 -237l-44 -204h-55l103 482h55zM453 644q-24 -84 -83 -84q-11 0 -38 9l-44 14q-13 4 -22 6q-11 3 -16 3q-17 0 -36 -31h-47q34 84 86 84
q17 0 50 -11l53 -19q3 -1 11 -1h2q23 0 35 30h49z" />
    <glyph glyph-name="ograve" unicode="&#xf2;" 
d="M93 74q37 -42 97 -42q79 0 137 80q57 80 57 190q0 64 -37 105t-96 41q-80 0 -137 -78q-58 -78 -58 -185q0 -68 37 -111zM71 404q71 89 180 89q189 0 189 -201q0 -142 -91 -238q-63 -64 -166 -64q-84 0 -133 51q-50 52 -50 139q0 136 71 224zM307 679l45 -119h-45l-84 119
h84z" />
    <glyph glyph-name="oacute" unicode="&#xf3;" 
d="M93 74q37 -42 97 -42q79 0 137 80q57 80 57 190q0 64 -37 105t-96 41q-80 0 -137 -78q-58 -78 -58 -185q0 -68 37 -111zM71 404q71 89 180 89q189 0 189 -201q0 -142 -91 -238q-63 -64 -166 -64q-84 0 -133 51q-50 52 -50 139q0 136 71 224zM385 679l-124 -119h-47
l77 119h94z" />
    <glyph glyph-name="ocircumflex" unicode="&#xf4;" 
d="M93 74q37 -42 97 -42q79 0 137 80q57 80 57 190q0 64 -37 105t-96 41q-80 0 -137 -78q-58 -78 -58 -185q0 -68 37 -111zM71 404q71 89 180 89q189 0 189 -201q0 -142 -91 -238q-63 -64 -166 -64q-84 0 -133 51q-50 52 -50 139q0 136 71 224zM357 679l57 -119h-57l-40 84
l-85 -84h-71l119 119h77z" />
    <glyph glyph-name="otilde" unicode="&#xf5;" 
d="M93 74q37 -42 97 -42q79 0 137 80q57 80 57 190q0 64 -37 105t-96 41q-80 0 -137 -78q-58 -78 -58 -185q0 -68 37 -111zM71 404q71 89 180 89q189 0 189 -201q0 -142 -91 -238q-63 -64 -166 -64q-84 0 -133 51q-50 52 -50 139q0 136 71 224zM439 644q-24 -84 -83 -84
q-11 0 -38 9l-44 14q-13 4 -22 6q-11 3 -16 3q-17 0 -36 -31h-47q34 84 86 84q17 0 50 -11l53 -19q3 -1 11 -1h2q23 0 35 30h49z" />
    <glyph glyph-name="odieresis" unicode="&#xf6;" 
d="M93 74q37 -42 97 -42q79 0 137 80q57 80 57 190q0 64 -37 105t-96 41q-80 0 -137 -78q-58 -78 -58 -185q0 -68 37 -111zM71 404q71 89 180 89q189 0 189 -201q0 -142 -91 -238q-63 -64 -166 -64q-84 0 -133 51q-50 52 -50 139q0 136 71 224zM411 639l-17 -79h-58l17 79
h58zM254 639l-17 -79h-58l17 79h58z" />
    <glyph glyph-name="divide" unicode="&#xf7;" horiz-adv-x="784" 
d="M534 296q-19 -76 -78 -122q-59 -47 -136 -47q-162 0 -162 160q0 107 69 182t169 75q65 0 109 -36q43 -36 43 -90v-5q0 -4 -1 -8h-44q-2 100 -115 100q-78 0 -131 -62q-53 -61 -53 -152q0 -125 123 -125q124 0 162 130h45zM151 532q-112 -111 -112 -254q0 -110 73 -183
q73 -72 185 -72q143 0 254 111q111 110 111 253q0 110 -72 183q-73 72 -183 72q-145 0 -256 -110zM620 598q82 -81 82 -204q0 -160 -125 -283t-286 -123q-126 0 -208 81q-83 80 -83 204q0 159 126 282q125 123 287 123q125 0 207 -80z" />
    <glyph glyph-name="oslash" unicode="&#xf8;" 
d="M122 79q36 -47 101 -47q79 0 136 80q58 79 58 188q0 41 -12 68zM385 400q-39 48 -101 48q-79 0 -137 -78q-58 -77 -58 -184q0 -35 14 -74zM61 70q-28 50 -28 118q0 145 94 242q60 63 157 63q88 0 139 -54l54 54l26 -26l-57 -58q27 -48 27 -119q0 -142 -91 -236
q-61 -64 -166 -64q-85 0 -132 50l-58 -58l-26 25z" />
    <glyph glyph-name="ugrave" unicode="&#xf9;" 
d="M292 0l17 88q-37 -47 -78 -72q-45 -26 -100 -26q-131 0 -131 124q0 29 10 70l65 298h56l-64 -300q-8 -37 -8 -59q0 -82 87 -82q109 0 163 116q20 42 34 92l5 17l47 216h56l-104 -482h-55zM297 668l45 -119h-45l-84 119h84z" />
    <glyph glyph-name="uacute" unicode="&#xfa;" 
d="M292 0l17 88q-37 -47 -78 -72q-45 -26 -100 -26q-131 0 -131 124q0 29 10 70l65 298h56l-64 -300q-8 -37 -8 -59q0 -82 87 -82q109 0 163 116q20 42 34 92l5 17l47 216h56l-104 -482h-55zM376 668l-124 -119h-47l77 119h94z" />
    <glyph glyph-name="ucircumflex" unicode="&#xfb;" 
d="M292 0l17 88q-37 -47 -78 -72q-45 -26 -100 -26q-131 0 -131 124q0 29 10 70l65 298h56l-64 -300q-8 -37 -8 -59q0 -82 87 -82q109 0 163 116q20 42 34 92l5 17l47 216h56l-104 -482h-55zM347 668l57 -119h-57l-40 84l-85 -84h-71l119 119h77z" />
    <glyph glyph-name="udieresis" unicode="&#xfc;" 
d="M292 0l17 88q-37 -47 -78 -72q-45 -26 -100 -26q-131 0 -131 124q0 29 10 70l65 298h56l-64 -300q-8 -37 -8 -59q0 -82 87 -82q109 0 163 116q20 42 34 92l5 17l47 216h56l-104 -482h-55zM402 628l-17 -79h-58l17 79h58zM245 628l-17 -79h-58l17 79h58z" />
    <glyph glyph-name="ydieresis" unicode="&#xff;" horiz-adv-x="465" 
d="M145 482l70 -427l253 427h60l-348 -582q-57 -95 -114 -95q-25 0 -66 17l6 52q34 -13 57 -13q29 0 54 42l58 97l-86 482h56zM470 628l-17 -79h-58l17 79h58zM313 628l-17 -79h-58l17 79h58z" />
    <glyph glyph-name="dotlessi" unicode="&#x131;" horiz-adv-x="206" 
d="M160 482l-103 -482h-57l103 482h57z" />
    <glyph glyph-name="OE" unicode="&#x152;" horiz-adv-x="931" 
d="M241 38q156 0 214 207q40 138 40 218q0 71 -48 119q-48 47 -119 47q-115 0 -189 -106q-75 -105 -75 -268q0 -217 177 -217zM898 666l-11 -52h-287l-52 -243h282l-11 -52h-282l-57 -266h327l-11 -53h-391l14 67q-75 -78 -178 -78q-112 0 -176 75q-65 74 -65 203
q0 172 97 291q97 120 236 120q140 0 192 -119l23 107h350z" />
    <glyph glyph-name="oe" unicode="&#x153;" horiz-adv-x="879" 
d="M247 450q-79 0 -135 -75q-56 -76 -56 -181q0 -72 35 -116t92 -44q84 0 138 75q53 74 53 191q0 150 -127 150zM734 277q1 8 1 16v13q0 63 -34 103q-35 39 -90 39q-127 0 -177 -171h300zM426 232q-4 -32 -4 -47q0 -67 35 -110t91 -43q54 0 96 39q30 28 59 73l61 -5
q-74 -149 -218 -149q-116 0 -170 109q-26 -41 -67 -70q-58 -39 -127 -39q-84 0 -133 56q-49 55 -49 151q0 134 89 228q64 68 164 68q117 0 165 -114q67 114 193 114q83 0 133 -53t50 -142q0 -24 -6 -66h-362z" />
    <glyph glyph-name="Ydieresis" unicode="&#x178;" horiz-adv-x="569" 
d="M67 666l165 -357l278 357h77l-335 -412l-54 -254h-63l54 262l-189 404h67zM431 812l-17 -79h-58l17 79h58zM274 812l-17 -79h-58l17 79h58z" />
    <glyph glyph-name="florin" unicode="&#x192;" horiz-adv-x="507" 
d="M165 426q-101 -36 -101 -114q0 -28 27 -55t105 -77q9 -5 18 -11l49 -33q7 -6 10 -7l7 -3q105 29 105 109q0 58 -129 136zM384 514q1 15 1 30q0 93 -102 93q-52 0 -87 -29q-35 -30 -35 -73q0 -28 15 -44t68 -47q100 -59 141 -93q55 -46 55 -101q0 -111 -130 -153
q39 -40 39 -83q0 -67 -57 -113q-58 -47 -141 -47q-151 0 -151 136q0 22 4 41h53q-3 -25 -3 -34q0 -96 105 -96q56 0 94 31q37 31 37 76q0 50 -113 119l-56 35q-111 67 -111 135q0 114 127 157q-33 32 -33 75q0 65 54 110q54 44 133 44q148 0 148 -134q0 -18 -2 -35h-53z" />
    <glyph glyph-name="circumflex" unicode="&#x2c6;" horiz-adv-x="0" 
d="M196 666l57 -119h-57l-40 84l-85 -84h-71l119 119h77z" />
    <glyph glyph-name="caron" unicode="&#x2c7;" horiz-adv-x="0" 
d="M57 666l39 -85l86 85h72l-120 -119h-77l-57 119h57z" />
    <glyph glyph-name="breve" unicode="&#x2d8;" horiz-adv-x="0" 
d="M48 657q3 -65 63 -65q62 0 94 65h54q-53 -111 -148 -111q-106 0 -111 111h48z" />
    <glyph glyph-name="dotaccent" unicode="&#x2d9;" horiz-adv-x="0" 
 />
    <glyph glyph-name="ring" unicode="&#x2da;" horiz-adv-x="0" 
d="M82 563q50 0 50 52q0 51 -51 51q-49 0 -49 -51q0 -52 50 -52zM81 696q35 0 59 -24q25 -25 25 -59q0 -82 -83 -82q-34 0 -58 24t-24 58q0 83 81 83z" />
    <glyph glyph-name="ogonek" unicode="&#x2db;" horiz-adv-x="0" 
 />
    <glyph glyph-name="tilde" unicode="&#x2dc;" horiz-adv-x="0" 
d="M286 637q-24 -84 -83 -84q-11 0 -38 9l-44 14q-13 4 -22 6q-11 3 -16 3q-17 0 -36 -31h-47q34 84 86 84q17 0 50 -11l53 -19q3 -1 11 -1h2q23 0 35 30h49z" />
    <glyph glyph-name="hungarumlaut" unicode="&#x2dd;" horiz-adv-x="0" 
 />
    <glyph glyph-name="uni0394" unicode="&#x394;" horiz-adv-x="539" 
d="M99 -99l73 412h-13q-159 0 -159 142q0 98 79 162q60 50 173 50h222l-6 -32h-48l-129 -734h-40l129 734h-110l-130 -734h-41z" />
    <glyph glyph-name="uni03A9" unicode="&#x3a9;" horiz-adv-x="666" 
d="M9 51h201q-148 91 -148 243q0 157 113 273t267 116q115 0 190 -73q74 -72 74 -185q0 -244 -256 -374h201l-9 -51h-269l8 48q56 28 90 52q37 27 68 59q106 112 106 255q0 94 -60 156q-60 61 -152 61q-127 0 -219 -99t-92 -236q0 -152 156 -248l-8 -48h-270z" />
    <glyph glyph-name="pi" unicode="&#x3c0;" horiz-adv-x="558" 
d="M0 0l83 471h-69l8 46h496l-8 -46h-68l-84 -471h-55l83 471h-246l-84 -471h-56z" />
    <glyph glyph-name="endash" unicode="&#x2013;" horiz-adv-x="500" 
d="M143 575h50q63 0 63 40q0 26 -47 26h-54zM219 666q68 0 68 -46q0 -31 -34 -54l11 -23q2 -2 2 -17l-2 -45q-1 -7 1 -15h-30q-3 8 -3 12l4 45q0 27 -47 27h-50l-15 -84h-30l35 200h90zM88 668q-58 -57 -58 -131q0 -57 38 -94q39 -38 97 -38q75 0 133 57t58 131q0 57 -38 95
q-38 37 -96 37q-76 0 -134 -57zM341 710q45 -44 45 -112q0 -87 -68 -154q-69 -68 -158 -67q-69 0 -114 44q-46 44 -46 111q0 87 69 155q69 67 158 67q69 0 114 -44z" />
    <glyph glyph-name="emdash" unicode="&#x2014;" horiz-adv-x="931" 
d="M942 253v-42h-942v42h942z" />
    <glyph glyph-name="quoteleft" unicode="&#x2018;" horiz-adv-x="206" 
d="M0 467l19 89q18 90 86 122l14 -33q-50 -24 -61 -89h41l-20 -89h-79z" />
    <glyph glyph-name="quoteright" unicode="&#x2019;" horiz-adv-x="206" 
d="M119 678l-18 -89q-20 -91 -86 -122l-15 33q51 24 62 89h-41l19 89h79z" />
    <glyph glyph-name="quotedblleft" unicode="&#x201c;" horiz-adv-x="362" 
d="M156 467l19 89q18 91 85 122l15 -33q-49 -24 -62 -89h42l-20 -89h-79zM0 467l19 89q18 90 86 122l14 -33q-50 -24 -61 -89h41l-20 -89h-79z" />
    <glyph glyph-name="quotedblright" unicode="&#x201d;" horiz-adv-x="362" 
d="M275 678l-19 -89q-18 -90 -85 -122l-15 33q49 24 62 89h-41l19 89h79zM119 678l-18 -89q-20 -91 -86 -122l-15 33q51 24 62 89h-41l19 89h79z" />
    <glyph glyph-name="quotedblbase" unicode="&#x201e;" horiz-adv-x="362" 
d="M275 88l-19 -88q-18 -89 -86 -121l-14 33q50 25 61 88h-41l20 88h79zM119 88l-18 -88q-20 -89 -86 -121l-15 33q50 24 62 88h-41l19 88h79z" />
    <glyph glyph-name="dagger" unicode="&#x2020;" 
d="M300 657l-44 -202h188l-9 -48h-189l-121 -565h-58l121 565h-188l9 48h189l43 202h59z" />
    <glyph glyph-name="daggerdbl" unicode="&#x2021;" 
d="M379 657l-38 -181h189l-11 -49h-188l-77 -356h189l-11 -49h-188l-40 -180h-57l40 180h-187l10 49h187l75 356h-188l10 49h189l38 181h58z" />
    <glyph glyph-name="bullet" unicode="&#x2022;" horiz-adv-x="255" 
d="M138 351q0 -32 -24 -56q-25 -24 -57 -24q-57 0 -57 57q0 31 25 55q24 24 56 24q57 0 57 -56z" />
    <glyph glyph-name="ellipsis" unicode="&#x2026;" horiz-adv-x="931" 
d="M410 88l-18 -88h-80l19 88h79zM722 88l-19 -88h-80l20 88h79zM99 88l-19 -88h-80l20 88h79z" />
    <glyph glyph-name="perthousand" unicode="&#x2030;" horiz-adv-x="0" 
 />
    <glyph glyph-name="guilsinglleft" unicode="&#x2039;" horiz-adv-x="362" 
d="M222 445l-163 -205l76 -208h-42l-93 217l179 196h43z" />
    <glyph glyph-name="guilsinglright" unicode="&#x203a;" horiz-adv-x="362" 
d="M145 443l81 -216l-173 -195h-53l164 207l-64 204h45z" />
    <glyph glyph-name="fraction" unicode="&#x2044;" horiz-adv-x="500" 
d="M385 557l42 -15l-72 -106h166l-9 -46h-188l-73 -109h242l-8 -46h-265l-92 -136l-41 15l82 122h-169l7 45h193l73 109h-247l8 46h270z" />
    <glyph glyph-name="trademark" unicode="&#x2122;" horiz-adv-x="846" 
d="M318 628h-135l-64 -362h-46l63 362h-136l6 38h318zM772 666l-70 -400h-41l60 350l-207 -350h-28l-81 350l-62 -350h-43l71 400h65l78 -318l195 318h63z" />
    <glyph glyph-name="partialdiff" unicode="&#x2202;" horiz-adv-x="500" 
d="M113 327q-62 -65 -62 -148q0 -64 39 -105t99 -41q79 0 140 66q60 66 60 153q0 139 -134 139q-80 0 -142 -64zM398 380q0 115 -72 183q-74 69 -180 80l20 32q61 -6 99 -24q92 -42 141 -135q43 -84 43 -195q0 -142 -78 -237q-77 -95 -193 -95q-78 0 -128 51q-50 52 -50 132
q0 103 79 184q78 80 179 80q79 0 140 -65v9z" />
    <glyph glyph-name="product" unicode="&#x220f;" horiz-adv-x="666" 
d="M834 750l-7 -40h-84l-163 -920h85l-7 -40h-224l7 40h89l163 920h-389l-163 -920h89l-7 -40h-223l8 40h85l161 920h-85l7 40h658z" />
    <glyph glyph-name="radical" unicode="&#x221a;" horiz-adv-x="500" 
d="M78 605q-37 -37 -37 -84q0 -86 85 -86q48 0 85 37t37 85q0 85 -85 85q-48 0 -85 -37zM255 646q34 -33 34 -83q0 -65 -51 -114q-51 -50 -118 -50q-52 0 -86 33t-34 83q0 64 52 114q51 50 118 50q51 0 85 -33z" />
    <glyph glyph-name="infinity" unicode="&#x221e;" horiz-adv-x="666" 
d="M169 441q-51 0 -87 -37q-36 -38 -36 -92q0 -85 84 -85q78 0 178 107q-58 107 -139 107zM505 227q52 0 87 38q35 37 35 92q0 84 -85 84q-60 0 -119 -50q-16 -14 -58 -57q63 -107 140 -107zM547 487q127 0 127 -120q0 -76 -52 -131q-52 -54 -125 -54q-101 0 -166 116
q-32 -34 -61 -58q-71 -58 -143 -58q-127 0 -127 122q0 76 53 130q52 53 127 53q98 0 163 -116q106 116 204 116z" />
    <glyph glyph-name="integral" unicode="&#x222b;" horiz-adv-x="500" 
d="M409 618q10 46 10 68q0 34 -35 34q-44 0 -57 -70l-138 -778q-21 -122 -112 -122q-77 0 -77 87q0 22 5 57h48l-1 -8q-9 -47 -9 -61q0 -44 37 -44q47 0 61 79l127 717q0 5 8 43q24 130 112 130q71 0 71 -78l-2 -43l-2 -11h-46z" />
    <glyph glyph-name="approxequal" unicode="&#x2248;" horiz-adv-x="255" 
d="M138 351q0 -32 -24 -56q-25 -24 -57 -24q-57 0 -57 57q0 31 25 55q24 24 56 24q57 0 57 -56z" />
    <glyph glyph-name="notequal" unicode="&#x2260;" horiz-adv-x="500" 
d="M385 557l42 -15l-72 -106h166l-9 -46h-188l-73 -109h242l-8 -46h-265l-92 -136l-41 15l82 122h-169l7 45h193l73 109h-247l8 46h270z" />
    <glyph glyph-name="lessequal" unicode="&#x2264;" horiz-adv-x="500" 
d="M478 45h-478l10 52h478zM566 539l-450 -180l385 -186l-9 -50l-441 210l9 51l514 205z" />
    <glyph glyph-name="greaterequal" unicode="&#x2265;" horiz-adv-x="500" 
d="M478 45h-478l10 52h478zM23 173l450 180l-385 186l8 50l441 -210l-9 -51l-514 -205z" />
    <glyph glyph-name="lozenge" unicode="&#x25ca;" horiz-adv-x="846" 
d="M318 628h-135l-64 -362h-46l63 362h-136l6 38h318zM772 666l-70 -400h-41l60 350l-207 -350h-28l-81 350l-62 -350h-43l71 400h65l78 -318l195 318h63z" />
    <glyph glyph-name="uniF8FF" unicode="&#xf8ff;" horiz-adv-x="500" 
d="M478 45h-478l10 52h478zM566 539l-450 -180l385 -186l-9 -50l-441 210l9 51l514 205z" />
    <glyph glyph-name="uniFB01" unicode="&#xfb01;" horiz-adv-x="465" 
d="M444 666l-18 -87h-56l17 87h57zM405 482l-103 -482h-57l103 482h57zM262 482l-8 -41h-101l-96 -441h-57l95 441h-76l7 41h77l17 74q26 122 127 122q17 0 65 -9l17 -3l-10 -47q-40 8 -70 8q-57 0 -71 -68l-17 -77h101z" />
    <glyph glyph-name="uniFB02" unicode="&#xfb02;" horiz-adv-x="465" 
d="M444 666l-142 -666h-56l140 666h58zM262 482l-8 -41h-101l-96 -441h-57l95 441h-76l7 41h77l17 74q26 122 127 122q17 0 65 -9l17 -3l-10 -47q-40 8 -70 8q-57 0 -71 -68l-17 -77h101z" />
    <glyph glyph-name="glyph180" horiz-adv-x="500" 
d="M143 575h50q63 0 63 40q0 26 -47 26h-54zM219 666q68 0 68 -46q0 -31 -34 -54l11 -23q2 -2 2 -17l-2 -45q-1 -7 1 -15h-30q-3 8 -3 12l4 45q0 27 -47 27h-50l-15 -84h-30l35 200h90zM88 668q-58 -57 -58 -131q0 -57 38 -94q39 -38 97 -38q75 0 133 57t58 131q0 57 -38 95
q-38 37 -96 37q-76 0 -134 -57zM341 710q45 -44 45 -112q0 -87 -68 -154q-69 -68 -158 -67q-69 0 -114 44q-46 44 -46 111q0 87 69 155q69 67 158 67q69 0 114 -44z" />
    <glyph glyph-name="glyph190" horiz-adv-x="666" 
d="M746 750l-39 -220h-42l26 180h-463l180 -439l-345 -481h477l34 178h43l-38 -218h-579l8 44l343 479l-183 434l8 43h570z" />
    <glyph glyph-name="glyph207" horiz-adv-x="258" 
d="M119 88l-18 -88q-20 -89 -86 -121l-15 33q50 24 62 88h-41l19 88h79z" />
    </font>
</defs>
</svg>
